Welcome Guest ( Log In | Register )

> Releases Upload / Добавление релизов

Добавить релиз тут / Click here to add release
Рекомендованные обменники / Recommended file shares

 
Reply to this topicStart new topic
> Silenced Minstrel - Vol. 4 (2020), Black/Gothic Metal
post Oct 13 2021, 19:42:55
Post #1

KPN 666
**************
Group: Металариец
Posts: 2,743
Releases: 1329
From: Тегеран
On Forums: 12 years 3 months
Thanks: 19121 time(s)
Iran


(IMG:http://metalarea.org/images/audiocovers/2021_Oct/acov_tid356681_thumb.jpg)

*Artist: Silenced Minstrel
*Album: Vol. 4
*Year: 2020
*Genre: Black/Gothic Metal
*Country: Malaysia (IMG:http://metalarea.org/forum/style_images/flags/Malaysia.png)
*Format: mp3@CBR320kbps
*Size: 98MB

Tracklist:
01. The Black Journal of Alkrun-Nar 5:04
02. The Dark Almighty 4:16
03. The Silenced Minstrel 3:00
04. Mortifications of the Flesh 3:17
05. Godkiller (Forever Burning Me) 3:20
06. Dark Brotherhood of the Mind-Benders 3:57
07. Laments from a Forgotten Age 4:07
08. The Final Journey 5:41
09. Canto Diablo 2 - Necrotic Mantras 4:10
10. Quod Damnum Omnis Spes 5:44
******************************
Total playing time: 42:36



Technical info
(IMG:http://metalarea.org/images/spectrogram/2021_Oct/2b52de442dd10c1282c134c491a0dd40.png)
Input File: 01. The Black Journal of Alkrun-Nar.mp3
Channels : 2
Sample Rate : 44100
Precision : 16-bit
Duration : 00:00:00.30 = 13406 samples = 22.7993 CDDA sectors
File Size : 12.3M
Bit Rate : 324M
Sample Encoding: MPEG audio (layer I, II or III)
Comments :
Title=The Black Journal of Alkrun-Nar
Artist=Silenced Minstrel
Album=Vol. 4
Tracknumber=1
Year=2020-01-01
Genre=Alternative & Indie Rock & Metal
Discnumber=1



Register


Go to the top of the page
  Insert nick Quick quote
+Quote Post

Reply to this topicStart new topic
1 User(s) are reading this topic (1 Guests and 0 Anonymous Users)
0 Members:

 



- Lo-Fi Version Support form
Copyrights and abuse reports form
Time is now: 15th October 2021 - 20:47:36