Welcome Guest ( Log In | Register )

> Releases Upload / Добавление релизов

Добавить релиз тут / Click here to add release
Рекомендованные обменники / Recommended file shares

 
Reply to this topicStart new topic
> Silenced Minstrel - Volume 5 (2020), Black/Gothic Metal
post Oct 13 2021, 19:48:28
Post #1

KPN 666
**************
Group: Металариец
Posts: 2,790
Releases: 1374
From: Тегеран
On Forums: 12 years 5 months
Thanks: 19618 time(s)
Iran


(IMG:http://metalarea.org/images/audiocovers/2021_Oct/acov_tid356682_thumb.jpg)

*Artist: Silenced Minstrel
*Album: Volume 5
*Year: 2020
*Genre: Black/Gothic Metal
*Country: Malaysia (IMG:http://metalarea.org/forum/style_images/flags/Malaysia.png)
*Format: mp3@CBR320kbps
*Size: 116MB

Tracklist:
01. Unenlightened Beast 3:42
02. Twilight Of Religion 3:32
03. Hell On Earth 5:10
04. Descent Into Madness 5:31
05. Canto Diablo 3 - Plagued By The Future 4:27
06. Canto Diablo 4 - Ballad For Satan 5:28
07. Ex Lucis Tenebris 5:00
08. Night Hunt Of The Unseelie 4:16
09. Dirge Of The Eternal Winter 4:43
10. Regina Of The Blessed Moon (Instrumental) 8:25
******************************
Total playing time: 50:14



Technical info
(IMG:http://metalarea.org/images/spectrogram/2021_Oct/af0a8fc9e4ce05e62ae256467f866438.png)
Input File: 01. Unenlightened Beast.mp3
Channels : 2
Sample Rate : 44100
Precision : 16-bit
Duration : 00:00:00.22 = 9746 samples = 16.5748 CDDA sectors
File Size : 9.00M
Bit Rate : 326M
Sample Encoding: MPEG audio (layer I, II or III)
Comments :
Title=Unenlightened Beasts
Artist=Silenced Minstrel
Album=Silenced Minstrel, Vol. 5
Tracknumber=1
Year=2020-10-31
Genre=Alternative & Indie Rock & Metal
Discnumber=1



Register


Go to the top of the page
  Insert nick Quick quote
+Quote Post

Reply to this topicStart new topic
1 User(s) are reading this topic (1 Guests and 0 Anonymous Users)
0 Members:

 



- Lo-Fi Version Support form
Copyrights and abuse reports form
Time is now: 9th December 2021 - 04:42:07