Welcome Guest ( Log In | Register )

> Releases Upload / Добавление релизов

Добавить релиз тут / Click here to add release
Рекомендованные обменники / Recommended file shares

 
Reply to this topicStart new topic
> Silenced Minstrel - An Ode To A Sickening Year [compilation] (2020), Black/Gothic Metal
post Oct 13 2021, 20:05:40
Post #1

KPN 666
**************
Group: Металариец
Posts: 2,743
Releases: 1329
From: Тегеран
On Forums: 12 years 3 months
Thanks: 19121 time(s)
Iran


(IMG:http://metalarea.org/images/audiocovers/2021_Oct/acov_tid356683_thumb.jpg)

*Artist: Silenced Minstrel
*Album: An Ode To A Sickening Year [compilation]
*Year: 2020
*Genre: Black/Gothic Metal
*Country: Malaysia (IMG:http://metalarea.org/forum/style_images/flags/Malaysia.png)
*Format: mp3@CBR320kbps
*Size: 118MB

Tracklist:
01. Chaos, Revisited 4:28
02. I Shall Miss Quintessa 5:42
03. Valedictory Sigh 4:44
04. Misery, Revisited 7:01
05. Another Black Year 6:39
06. In Memoriam: Undertaker's Lament 4:40
07. Black Hearted Mystic 5:06
08. (Blood Red Flowers) Bleeding Moon 5:07
09. Canto Diablo 1: Demonic Epiphany 3:56
10. In Memoriam: October Skies 3:59
******************************
Total playing time: 51:22



Technical info
(IMG:http://metalarea.org/images/spectrogram/2021_Oct/0565c3f62105484e60effdd6b3234fa1.png)
Input File: 01. Chaos, Revisited (Remixed 2020).mp3
Channels : 2
Sample Rate : 44100
Precision : 16-bit
Duration : 00:00:00.27 = 11819 samples = 20.1003 CDDA sectors
File Size : 10.8M
Bit Rate : 323M
Sample Encoding: MPEG audio (layer I, II or III)
Comments :
Title=Chaos, Revisited
Artist=Silenced Minstrel
Album=An Ode to a Sickening Year (Compilation)
Tracknumber=1
Year=2020-12-01
Genre=Alternative & Indie Rock & Metal
Discnumber=1



Register


Go to the top of the page
  Insert nick Quick quote
+Quote Post

Reply to this topicStart new topic
2 User(s) are reading this topic (2 Guests and 0 Anonymous Users)
0 Members:

 



- Lo-Fi Version Support form
Copyrights and abuse reports form
Time is now: 15th October 2021 - 20:40:24