Welcome Guest ( Log In | Register )

> Releases Upload / Добавление релизов

Добавить релиз тут / Click here to add release
Рекомендованные обменники / Recommended file shares

 
Reply to this topicStart new topic
> Downright Malice - Mechanica Temporis (2021), Heavy/Thrash Metal (D)
post Oct 13 2021, 20:15:10
Post #1

Правь статус, ####!111
**************
Group: Металариец
Posts: 27,653
Releases: 20089
From: Г.Харьков
On Forums: 9 years 5 months
Thanks: 406429 time(s)
Unknown


(IMG:https://metalarea.org/images/audiocovers/2021_Oct/acov_tid356684_thumb.jpg)

*Artist: Downright Malice
*Album: Mechanica Temporis
*Year: 2021
*Genre: Heavy/Thrash Metal
*Country: France (IMG:https://metalarea.org/forum/style_images/flags/France.png)
*Format: mp3@CBR320kbps
*Size: 93MB

Tracklist:
1. Downright Malice 04:00
2. You can Pray 03:51
3. Malleus Maleficarum 04:31
4. Parasite 03:49
5. Virtual Reality 04:28
6. I see the Dead 04:07
7. A Kick in the Anthill 03:45
8. A Time for All 04:34
9. The Book 04:04
10. Sin of Pride 04:24
******************************
Total playing time: 41:33



Extended info
Didier Bauer Guitars (1987-present)
Aristide "Aris" Brigenti Bass (1991-present)
Jean-Luc "Cliff" Khelifa Vocals (1991-present)
Olivier Riedel Drums (2000-present)
See also: Agon
Cyrille Schaub Vocals (2000-present)


Technical info
(IMG:https://metalarea.org/images/spectrogram/2021_Oct/730b141dccbac7342d3ac31abf029bb2.png)
Input File: 08 - A Time for All.mp3
Channels : 2
Sample Rate : 44100
Precision : 16-bit
Duration : 00:04:34.38 = 12100114 samples = 20578.4 CDDA sectors
File Size : 11.0M
Bit Rate : 320k
Sample Encoding: MPEG audio (layer I, II or III)
Comments :
Title=A Time for All
Artist=Downright Malice
Album=Mechanica Temporis
Tracknumber=8/10
Year=2021



Register


Go to the top of the page
  Insert nick Quick quote
+Quote Post

Reply to this topicStart new topic
1 User(s) are reading this topic (1 Guests and 0 Anonymous Users)
0 Members:

 



- Lo-Fi Version Support form
Copyrights and abuse reports form
Time is now: 15th October 2021 - 21:33:19