Welcome Guest ( Log In | Register )

> Releases Upload / Добавление релизов

Добавить релиз тут / Click here to add release
Рекомендованные обменники / Recommended file shares

 
Reply to this topicStart new topic
> Dunerider - Ruins (2021), Doom/Sludge/Stoner Metal
post Oct 13 2021, 20:32:36
Post #1

Правь статус, ####!111
**************
Group: Металариец
Posts: 27,653
Releases: 20089
From: Г.Харьков
On Forums: 9 years 5 months
Thanks: 406429 time(s)
Unknown


(IMG:https://metalarea.org/images/audiocovers/2021_Oct/acov_tid356685_thumb.jpg)

*Artist: Dunerider
*Album: Ruins
*Year: 2021
*Genre: Doom/Sludge/Stoner Metal
*Country: France (IMG:https://metalarea.org/forum/style_images/flags/France.png)
*Format: mp3@CBR320kbps
*Size: 123MB

Tracklist:
1. Warlords 09:48
2. Sand Walker 06:51
3. Death Touch Wizard 08:18
4. Blood Sun 07:17
5. Last Surrender 08:43
6. Ruins 04:29
7. Rebirth 08:51
******************************
Total playing time: 54:17




Extended info
Fred Dupré Everything


Technical info
(IMG:https://metalarea.org/images/spectrogram/2021_Oct/75db8d9e0e0f29bc6f1100531bb8e2c1.png)
Input File: 07 - Rebirth.mp3
Channels : 2
Sample Rate : 44100
Precision : 16-bit
Duration : 00:08:51.91 = 23457143 samples = 39893.1 CDDA sectors
File Size : 21.3M
Bit Rate : 321k
Sample Encoding: MPEG audio (layer I, II or III)
Comments :
Title=Rebirth
Artist=Dunerider
Album=Ruins
Tracknumber=7/7
Year=2021



Register


Go to the top of the page
  Insert nick Quick quote
+Quote Post

Reply to this topicStart new topic
1 User(s) are reading this topic (1 Guests and 0 Anonymous Users)
0 Members:

 



- Lo-Fi Version Support form
Copyrights and abuse reports form
Time is now: 15th October 2021 - 21:46:53