Welcome Guest ( Log In | Register )

> Releases Upload / Добавление релизов

Добавить релиз тут / Click here to add release
Рекомендованные обменники / Recommended file shares

 
Reply to this topicStart new topic
> Oscuridad - Legion (2021), Black Metal (D5)
post Oct 13 2021, 22:11:42
Post #1

Правь статус, ####!616
**************
Group: Металариец
Posts: 7,183
Releases: 5615
From: 55°35’N 38°08’E
On Forums: 13 years 3 months
Thanks: 102342 time(s)
Unknown


(IMG:https://metalarea.org/images/audiocovers/2021_Oct/acov_tid356686_thumb.jpg)

*Artist: Oscuridad
*Album: Legion
*Year: 2021
*Genre: Black Metal
*Country: Colombia (IMG:https://metalarea.org/forum/style_images/flags/Colombia.png)
*Format: mp3@VBR234kbps
*Size: 89MB

Tracklist:
1.Legion 08:42
2.Una Noche Demoniaca 10:45
3.Sueños Oscuros 03:14
4.Los Hechizos de la Bruja Yagari 10:10
5.Un Ultimo Lamento 12:23
6.El Manuscrito de un Final 06:00
******************************
Total playing time: 51:14



Extended info
CD, Tribulación Productions


Technical info
(IMG:https://metalarea.org/images/spectrogram/2021_Oct/82389f1588283d98d6169b0cf14097d0.png)
Input File: 01 Legion.mp3
Channels : 2
Sample Rate : 44100
Precision : 16-bit
Duration : 00:08:44.62 = 23135610 samples = 39346.3 CDDA sectors
File Size : 16.2M
Bit Rate : 246k
Sample Encoding: MPEG audio (layer I, II or III)
Comments :
Title=Legion
Artist=Oscuridad
Album=Legion
Tracknumber=1/6
Year=2021-00-00
Genre=Black Metal



Register


Thanks:
Go to the top of the page
  Insert nick Quick quote
+Quote Post

Reply to this topicStart new topic
1 User(s) are reading this topic (1 Guests and 0 Anonymous Users)
0 Members:

 



- Lo-Fi Version Support form
Copyrights and abuse reports form
Time is now: 15th October 2021 - 21:57:44