Welcome Guest ( Log In | Register )

> Releases Upload / Добавление релизов

Добавить релиз тут / Click here to add release
Рекомендованные обменники / Recommended file shares

 
Reply to this topicStart new topic
> Daemoni - Necrocult [ep] (2021), Black Metal
post Oct 13 2021, 22:29:49
Post #1

Правь статус, 616
**************
Group: Металариец
Posts: 7,223
Releases: 5652
From: 55°35’N 38°08’E
On Forums: 13 years 5 months
Thanks: 104203 time(s)
Unknown


(IMG:https://metalarea.org/images/audiocovers/2021_Oct/acov_tid356687_thumb.jpg)

*Artist: Daemoni
*Album: Necrocult [ep]
*Year: 2021
*Genre: Black Metal
*Country: Colombia (IMG:https://metalarea.org/forum/style_images/flags/Colombia.png)
*Format: mp3@VBR260kbps
*Size: 38MB

Tracklist:
1.Spitting Inferno 03:51
2.The Whip Of The Goat 04:24
3.Fest of fire 04:04
4.Necrocult 03:41
5.Blessed With the Wrath of Evil (The Abyss Cover) 03:53
******************************
Total playing time: 19:53




Extended info
CD, Raise the Dead Productions


Technical info
(IMG:https://metalarea.org/images/spectrogram/2021_Oct/03dcc549042b2659c5f17995134f635d.png)
Input File: 02 The Whip of the Goat.mp3
Channels : 2
Sample Rate : 44100
Precision : 16-bit
Duration : 00:04:26.53 = 11753841 samples = 19989.5 CDDA sectors
File Size : 8.64M
Bit Rate : 259k
Sample Encoding: MPEG audio (layer I, II or III)
Comments :
Title=The Whip of the Goat
Artist=Daemoni
Album=Necrocult
Tracknumber=2/5
Year=2021-00-00
Genre=Black Metal



Register


Go to the top of the page
  Insert nick Quick quote
+Quote Post

Reply to this topicStart new topic
1 User(s) are reading this topic (1 Guests and 0 Anonymous Users)
0 Members:

 



- Lo-Fi Version Support form
Copyrights and abuse reports form
Time is now: 9th December 2021 - 04:57:45