Welcome Guest ( Log In | Register )

> Releases Upload / Добавление релизов

Добавить релиз тут / Click here to add release
Рекомендованные обменники / Recommended file shares

 
Reply to this topicStart new topic
> Maleficarum - Aquellos Gloriosos Dias Grises (2021), Black Metal (D)
post Oct 13 2021, 23:09:46
Post #1

Правь статус, ####!616
**************
Group: Металариец
Posts: 7,183
Releases: 5615
From: 55°35’N 38°08’E
On Forums: 13 years 3 months
Thanks: 102340 time(s)
Unknown


(IMG:https://metalarea.org/images/audiocovers/2021_Oct/acov_tid356688_thumb.jpg)

*Artist: Maleficarum
*Album: Aquellos Gloriosos Dias Grises
*Year: 2021
*Genre: Black Metal
*Country: Colombia (IMG:https://metalarea.org/forum/style_images/flags/Colombia.png)
*Format: mp3@VBR265kbps
*Size: 79MB

Tracklist:
1. Intro 01:20
2. En la penumbra 04:30
3. A la hora y en la hora de mi muerte 04:31
4. Caminando entre las sombras 05:10
5. Revolución de los malditos 05:27
6. Manto negro 03:34
7. Hijo de las tinieblas 05:11
8. Aquellos gloriosos días grises 04:58
9. Maldita creación 05:04
10. Outro 00:33
******************************
Total playing time: 40:18



Extended info
CD, Blackmoon Productions


Technical info
(IMG:https://metalarea.org/images/spectrogram/2021_Oct/5f7b575ac5cabff4e738b372d2493812.png)
Input File: 02 En la Penumbra.mp3
Channels : 2
Sample Rate : 44100
Precision : 16-bit
Duration : 00:04:30.84 = 11943912 samples = 20312.8 CDDA sectors
File Size : 9.35M
Bit Rate : 276k
Sample Encoding: MPEG audio (layer I, II or III)
Comments :
Title=En la Penumbra
Artist=Maleficarum
Album=Aquellos Gloriosos Dias Grises
Tracknumber=2/10
Year=2021-00-00
Genre=Black Metal



Register


Go to the top of the page
  Insert nick Quick quote
+Quote Post

Reply to this topicStart new topic
2 User(s) are reading this topic (2 Guests and 0 Anonymous Users)
0 Members:

 



- Lo-Fi Version Support form
Copyrights and abuse reports form
Time is now: 15th October 2021 - 21:52:57