Welcome Guest ( Log In | Register )

> Releases Upload / Добавление релизов

Добавить релиз тут / Click here to add release
Рекомендованные обменники / Recommended file shares

 
Reply to this topicStart new topic
> Liturgia & Excomulgación - Popvlvs Vvlt Decipi: Decipitatvr [split] (2021), Black Metal | Black Metal (D)
post Yesterday, 00:09:51
Post #1

Правь статус, ####!616
**************
Group: Металариец
Posts: 7,183
Releases: 5615
From: 55°35’N 38°08’E
On Forums: 13 years 3 months
Thanks: 102344 time(s)
Unknown


(IMG:https://metalarea.org/images/audiocovers/2021_Oct/acov_tid356689_thumb.jpg)

*Artist: Liturgia & Excomulgación
*Album: Popvlvs Vvlt Decipi: Decipitatvr [split]
*Year: 2021
*Genre: Black Metal | Black Metal
*Country: Colombia (IMG:https://metalarea.org/forum/style_images/flags/Colombia.png) | Colombia (IMG:https://metalarea.org/forum/style_images/flags/Colombia.png)
*Format: mp3@VBR282kbps
*Size: 92MB

Tracklist:
Liturgia:
1.God - Gold, Oil & Drugs 04:08
2.New Kings of the Black 04:58
3.Procession 03:38
4.Raven's Revenge 03:14
5.The Dawn of Wiracocha 02:47

Excomulgación:
6.Poseído Metal 05:26
7.Templo de Conflagración 08:06
8.Al Otro Lado del Lago 12:18
******************************
Total playing time: 44:35





Extended info
CD, Entropy Records / Green Revolution Prod.


Technical info
(IMG:https://metalarea.org/images/spectrogram/2021_Oct/62324b3e5a176ff069a8febb97b12cd4.png)
Input File: 01 Liturgia - GOD - Gold, Oil & Drugs.mp3
Channels : 2
Sample Rate : 44100
Precision : 16-bit
Duration : 00:04:08.03 = 10938211 samples = 18602.4 CDDA sectors
File Size : 8.49M
Bit Rate : 274k
Sample Encoding: MPEG audio (layer I, II or III)
Comments :
Title=God - Gold, Oil & Drugs
Artist=Liturgia
Album=Popvlvs Vvlt Decipi: Decipitatvr
Tracknumber=1/8
Year=2021-00-00
Genre=Black Metal



Register


Thanks:
Go to the top of the page
  Insert nick Quick quote
+Quote Post

Reply to this topicStart new topic
2 User(s) are reading this topic (2 Guests and 0 Anonymous Users)
0 Members:

 



- Lo-Fi Version Support form
Copyrights and abuse reports form
Time is now: 15th October 2021 - 22:03:05