Welcome Guest ( Log In | Register )

> Releases Upload / Добавление релизов

Добавить релиз тут / Click here to add release
Рекомендованные обменники / Recommended file shares

> Alcatrazz - V (2021), Heavy Metal/Shred (D11)
post Oct 14 2021, 11:52:22
Post #1

Правь статус, ####!111
**************
Group: Металариец
Posts: 28,186
Releases: 20579
From: Г.Харьков
On Forums: 9 years 6 months
Thanks: 419185 time(s)
Unknown


(IMG:https://metalarea.org/images/audiocovers/2021_Oct/acov_tid356696_thumb.jpg)

*Artist: Alcatrazz
*Album: V
*Year: 2021
*Genre: Heavy Metal/Shred
*Country: United States (IMG:https://metalarea.org/forum/style_images/flags/United%20States.png)
*Format: mp3@CBR320kbps
*Size: 145MB

Tracklist:
01. Guardian Angel
02. Nightwatch
03. Sword of Deliverance
04. Turn of the Wheel
05. Blackheart
06. Grace of God
07. Return to Nevermore
08. Target
09. Maybe Tomorrow
10. House of Lies
11. Alice’s Eyes
12. Dark Day for My Soul
******************************
Total playing time: 1:02:23



Extended info
Gary Shea Bass
Jimmy Waldo Keyboards
Mark Benquechea Drums
Joe Stump Guitars
Doogie White Vocals


Technical info
(IMG:https://metalarea.org/images/spectrogram/2021_Oct/6f6c27161aeb6c168cd27180a09281d4.png)
Input File: 07 - Return to Nevermore.mp3
Channels : 2
Sample Rate : 44100
Precision : 16-bit
Duration : 00:05:17.00 = 13979700 samples = 23775 CDDA sectors
File Size : 12.9M
Bit Rate : 325k
Sample Encoding: MPEG audio (layer I, II or III)
Comments :
Title=Return to Nevermore
Artist=Alcatrazz
Album=V
Tracknumber=7
Year=2021-10-15
Genre=Rock
Discnumber=1



Register


Go to the top of the page
  Insert nick Quick quote
+Quote Post
 
Start new topic
Replies (1 - 3)
post Oct 14 2021, 18:16:30
Post #2

Мегаманьяк
***********
Group: Металариец
Posts: 1,514
Releases: 0
From: Russian Federation - St.Petersburg
On Forums: 12 years 9 months
Thanks: 414 time(s)
Russian Federation


Ухх,теперь Doogie White голосит в Alcatrazz! (IMG:style_emoticons/default/17.gif) (IMG:style_emoticons/default/smile4.gif)


Thanks:
(1) smes,
Go to the top of the page
  Insert nick Quick quote
+Quote Post
post Oct 14 2021, 19:48:34
Post #3

Правь статус, ####!111
**************
Group: Металариец
Posts: 49,614
Releases: 894
On Forums: 12 years 6 months
Thanks: 45655 time(s)
Russian Federation


Крутой альбом, материал немного напомнил первые два релиза стамповского The Reign Of Terror и Attack!!! Ингви. Вторая половина записи особенно понравилась, по композициям отмечу Turn of the Wheel, Return to Nevermore, Target, Maybe Tomorrow, Alice’s Eyes. За микрофоном теперь Дуги Уайт, отметившийся и у Блэкмора и у Мальмстина. С ними он записал хорошие альбомы, вот и тут порадовало его участие, так как его вокал идеально подходит данной музыке.

После прошлого альбома эта запись особенно выразительна, но она кайфово слушается и без учёта оного.


Thanks:
(2) Olrak, smes,
Go to the top of the page
  Insert nick Quick quote
+Quote Post
post Nov 13 2021, 14:23:19
Post #4

Перевозчик
**************
Group: Металариец
Posts: 3,339
Releases: 0
On Forums: 13 years 5 months
Thanks: 747 time(s)
Russian Federation


Посредственный хард-рок. (IMG:style_emoticons/default/smile2.gif)
Go to the top of the page
  Insert nick Quick quote
+Quote Post

Reply to this topicStart new topic
2 User(s) are reading this topic (2 Guests and 0 Anonymous Users)
0 Members:

 



- Lo-Fi Version Support form
Copyrights and abuse reports form
Time is now: 6th December 2021 - 00:10:35