Welcome Guest ( Log In | Register )

> Lutharo - Hiraeth (2021), Melodic Death Metal
post Oct 14 2021, 12:05:00
Post #1

Правь статус, ####!111
**************
Group: Металариец
Posts: 28,587
Releases: 20922
From: Г.Харьков
On Forums: 9 years 8 months
Thanks: 427843 time(s)
Unknown


(IMG:https://metalarea.org/images/audiocovers/2021_Oct/acov_tid356697_thumb.jpg)

*Artist: Lutharo
*Album: Hiraeth
*Year: 2021
*Genre: Melodic Death Metal
*Country: Canada (IMG:https://metalarea.org/forum/style_images/flags/Canada.png)
*Format: mp3@CBR320kbps
*Size: 115MB

Tracklist:
1. Introspection 01:42
2. To Kill or to Crave 04:51
3. What Sleeps in Your Mind 05:19
4. Phantom 05:01
5. Worship Your Path 05:03
6. Hopeless Abandonment 04:23
7. Valley of the Cursed 04:31
8. In Silence We Reign 04:50
9. Eclipse 04:07
10. Lost in a Soul 07:03
******************************
Total playing time: 46:50




Extended info
John Raposo Guitars
Victor Bucur Guitars, Vocals (backing)
Krista Shipperbottom Vocals
Chris Pacey Bass
Duval Gabraiel Drums



Technical info
(IMG:https://metalarea.org/images/spectrogram/2021_Oct/2be3612c5adbf6eebe376fd1c2b7d607.png)
Input File: 08 - In Silence We Reign.mp3
Channels : 2
Sample Rate : 44100
Precision : 16-bit
Duration : 00:04:49.00 = 12744900 samples = 21675 CDDA sectors
File Size : 11.7M
Bit Rate : 325k
Sample Encoding: MPEG audio (layer I, II or III)
Comments :
Title=In Silence We Reign
Artist=Lutharo
Album=Hiraeth
Tracknumber=8
Year=2021-10-15
Genre=Metal
Discnumber=1



Register


Go to the top of the page
  Insert nick Quick quote
+Quote Post
 
Start new topic
Replies (1 - 5)
post Oct 14 2021, 17:53:35
Post #2

Тридцать лет на борту "Тяжёлого" крейсера
**************
Group: Металариец
Posts: 2,783
Releases: 0
From: Питер
On Forums: 14 years 7 months
Thanks: 874 time(s)
Russian Federation


Музон ещё туда-сюда, тётя -- не туда и не...
Попсовый закос под Arch Enemy с эстрадно-готическим уксусом
Go to the top of the page
  Insert nick Quick quote
+Quote Post
post Oct 14 2021, 21:48:49
Post #3

Три Литра
***
Group: Завсегдатай
Posts: 256
Releases: 1
On Forums: 14 years 9 months
Thanks: 25 time(s)
Russian Federation


недолюбливаю павер, но лучше бы она чистым и пела дальше. был бы среднячок для любителей стиля. а прастигоспаде скрим этот- это провал.
Go to the top of the page
  Insert nick Quick quote
+Quote Post
post Oct 16 2021, 17:19:24
Post #4

Common dweller of hell
**************
Group: Металариец
Posts: 4,189
Releases: 12
From: Dnipro
On Forums: 13 years 6 months
Thanks: 1648 time(s)
Ukraine


Неожиданно понравилось, хотя Arch Enemy недолюбливаю (IMG:style_emoticons/default/13.gif)
Go to the top of the page
  Insert nick Quick quote
+Quote Post
post Oct 17 2021, 09:35:15
Post #5

Шесть Литров
******
Group: Металариец
Posts: 527
Releases: 0
From: Ташкент
On Forums: 13 years 11 months
Thanks: 165 time(s)
Uzbekistan


Две епишки, особенно вторая, были огонь. Альбом пока не расслушивал. Но точно, что Криста обладает своим уникальным голосом и шармом.
Go to the top of the page
  Insert nick Quick quote
+Quote Post
post Nov 13 2021, 14:22:06
Post #6

Перевозчик
**************
Group: Металариец
Posts: 3,354
Releases: 0
On Forums: 13 years 6 months
Thanks: 751 time(s)
Russian Federation


А где мелодет-то? То, что вокалистка периодически пытается (не особо удачно, к слову) скримить, не переносит данную работу в упомянутый стиль (для которого, опять же к слову, более характерен, наверное, гроул). Хотя сама музыка вполне приятная. Послушаю подробнее, но на первый взгляд это как раз и есть середняковый павер для любителей сего направления.
Go to the top of the page
  Insert nick Quick quote
+Quote Post

Reply to this topicStart new topic
1 User(s) are reading this topic (1 Guests and 0 Anonymous Users)
0 Members:

 



- Lo-Fi Version Support form
Copyrights and abuse reports form
Time is now: 24th January 2022 - 16:03:50