Welcome Guest ( Log In | Register )

> Releases Upload / Добавление релизов

Добавить релиз тут / Click here to add release
Рекомендованные обменники / Recommended file shares

 
Reply to this topicStart new topic
> Sadistic Oppressor - Blessing Of Terror (2020), Death/Thrash Metal
post Oct 15 2021, 23:47:34
Post #1

Правь статус, ####!111
**************
Group: Металариец
Posts: 27,753
Releases: 20186
From: Г.Харьков
On Forums: 9 years 5 months
Thanks: 409144 time(s)
Unknown


(IMG:https://metalarea.org/images/audiocovers/2021_Oct/acov_tid356786_thumb.jpg)

*Artist: Sadistic Oppressor
*Album: Blessing Of Terror
*Year: 2020
*Genre: Death/Thrash Metal
*Country: United States (IMG:https://metalarea.org/forum/style_images/flags/United%20States.png)
*Format: mp3@CBR320kbps
*Size: 72MB

Tracklist:
1. Last Breath 02:38
2. Blessing of Terror 02:40
3. Ashes Are Left 02:38
4. Cremation 01:24
5. Chopped Remains 02:56
6. When Retribution Is Due 03:36
7. Before the Suffering 09:06
8. Sadistic Oppressor 07:07
******************************
Total playing time: 32:05




Extended info
Xavier Dudis Guitars (lead), Vocals (2019-present)


Technical info
(IMG:https://metalarea.org/images/spectrogram/2021_Oct/cb2a8b52f4f33474846e48a3e06039dc.png)
Input File: 07 - Before The Suffering.mp3
Channels : 2
Sample Rate : 44100
Precision : 16-bit
Duration : 00:09:06.78 = 24113086 samples = 41008.6 CDDA sectors
File Size : 21.9M
Bit Rate : 320k
Sample Encoding: MPEG audio (layer I, II or III)
Comments :
Title=Before The Suffering
Artist=Sadistic Oppressor
Album=Blessing of Terror
Tracknumber=7
Year=2020
Genre=Metal



Register


Go to the top of the page
  Insert nick Quick quote
+Quote Post

Reply to this topicStart new topic
1 User(s) are reading this topic (1 Guests and 0 Anonymous Users)
0 Members:

 



- Lo-Fi Version Support form
Copyrights and abuse reports form
Time is now: 28th October 2021 - 22:23:02