Welcome Guest ( Log In | Register )

> Releases Upload / Добавление релизов

Добавить релиз тут / Click here to add release
Рекомендованные обменники / Recommended file shares

 
Reply to this topicStart new topic
> Sensimillia - Strike By The Hour (2021), Heavy/Thrash Metal
post Oct 16 2021, 06:03:45
Post #1

Правь статус, ####!111
**************
Group: Металариец
Posts: 27,753
Releases: 20186
From: Г.Харьков
On Forums: 9 years 5 months
Thanks: 409133 time(s)
Unknown


(IMG:https://metalarea.org/images/audiocovers/2021_Oct/acov_tid356791_thumb.jpg)

*Artist: Sensimillia
*Album: Strike By The Hour
*Year: 2021
*Genre: Heavy/Thrash Metal
*Country: Australia (IMG:https://metalarea.org/forum/style_images/flags/Australia.png)
*Format: mp3@CBR320kbps
*Size: 76MB

Tracklist:
1. Life
2. Spell Is Upon U
3. Deaf & Blind
4. Strike by the Hour
5. Domination
6. Blood out of Stone
7. Afraid to Die
******************************
Total playing time: 32:46



Extended info


Technical info
(IMG:https://metalarea.org/images/spectrogram/2021_Oct/0c2b94d179e1eb9c0542a1046312bb2d.png)
Input File: 04 - Strike by the Hour.mp3
Channels : 2
Sample Rate : 44100
Precision : 16-bit
Duration : 00:05:30.81 = 14588545 samples = 24810.5 CDDA sectors
File Size : 13.3M
Bit Rate : 322k
Sample Encoding: MPEG audio (layer I, II or III)
Comments :
Title=Strike by the Hour
Artist=Sensimillia
Album=Strike by the Hour
Tracknumber=4/7
Year=2021



Register


Go to the top of the page
  Insert nick Quick quote
+Quote Post

Reply to this topicStart new topic
1 User(s) are reading this topic (1 Guests and 0 Anonymous Users)
0 Members:

 



- Lo-Fi Version Support form
Copyrights and abuse reports form
Time is now: 28th October 2021 - 20:41:52