Welcome Guest ( Log In | Register )

> Releases Upload / Добавление релизов

Добавить релиз тут / Click here to add release
Рекомендованные обменники / Recommended file shares

 
Reply to this topicStart new topic
> Haures - The Metal Age (2019), Heavy Metal
post Oct 17 2021, 11:45:22
Post #1

Правь статус, ####!111
**************
Group: Металариец
Posts: 28,174
Releases: 20563
From: Г.Харьков
On Forums: 9 years 6 months
Thanks: 418764 time(s)
Unknown


(IMG:https://metalarea.org/images/audiocovers/2021_Oct/acov_tid356827_thumb.jpg)

*Artist: Haures
*Album: The Metal Age
*Year: 2019
*Genre: Heavy Metal
*Country: Poland (IMG:https://metalarea.org/forum/style_images/flags/Poland.png)
*Format: mp3@CBR320kbps
*Size: 111MB

Tracklist:
1. Wraith 04:01
2. Inventor 04:41
3. Crimson Rider 05:04
4. A Slave of Reality 05:01
5. The Fallen Angel 06:46
6. Ballada o szczęściu 05:58
7. God of Eternal Fire 06:39
8. The Little Boy 03:40
9. Voices of the Sea 07:24
******************************
Total playing time: 49:14



Extended info
Marek Klimonda Guitars
Jarosław Klimonda Bass
Przemysław Wałęga Drums
Hubert Rzeszótko Guitars, Vocals, Lyrics


Technical info
(IMG:https://metalarea.org/images/spectrogram/2021_Oct/170d01a3f261131e2b15d93efe6cc1ac.png)
Input File: 07 - The God Of Eternal Fire.mp3
Channels : 2
Sample Rate : 44100
Precision : 16-bit
Duration : 00:06:40.37 = 17656361 samples = 30027.8 CDDA sectors
File Size : 16.0M
Bit Rate : 320k
Sample Encoding: MPEG audio (layer I, II or III)
Comments :
Title=The God Of Eternal Fire
Artist=Haures
Album=The Metal Age
Tracknumber=7
Year=2019
Genre=Heavy Metal



Register


Go to the top of the page
  Insert nick Quick quote
+Quote Post

Reply to this topicStart new topic
1 User(s) are reading this topic (1 Guests and 0 Anonymous Users)
0 Members:

 



- Lo-Fi Version Support form
Copyrights and abuse reports form
Time is now: 4th December 2021 - 12:43:38