Welcome Guest ( Log In | Register )

> Releases Upload / Добавление релизов

Добавить релиз тут / Click here to add release
Рекомендованные обменники / Recommended file shares

 
Reply to this topicStart new topic
> Vile Seeds Of Wasteful Vomiting & Leninist Necrophile - Vxsxoxwxv Vs Leninist Necrophile [split] (2017), Gorenoise/Noisegrind | Goregrind/Pornogrind/Noisegrind
post Oct 17 2021, 11:55:01
Post #1

Правь статус, ####!111
**************
Group: Металариец
Posts: 5,169
Releases: 481
From: MoscoW
On Forums: 15 years 2 days
Thanks: 7796 time(s)
Russian Federation


(IMG:https://metalarea.org/images/audiocovers/2021_Oct/acov_tid356828_thumb.jpg)

*Artist: Vile Seeds Of Wasteful Vomiting & Leninist Necrophile
*Album: Vxsxoxwxv Vs Leninist Necrophile [split]
*Year: 2017
*Genre: Gorenoise/Noisegrind | Goregrind/Pornogrind/Noisegrind
*Country: United States (IMG:https://metalarea.org/forum/style_images/flags/United%20States.png) | United States (IMG:https://metalarea.org/forum/style_images/flags/United%20States.png)
*Format: mp3@CBR320kbps
*Size: 12MB

Tracklist:
Vile Seeds Of Wasteful Vomiting:
01. Drowning In Vomit 01:47
02. Vile Seeds Of Wasteful Vomiting 01:11
Leninist Necrophile:
03. The People's Bath House 00:32
04. Screaming Bloody Revolution 01:22
******************************
Total playing time: 4:52

Extended info




Technical info
(IMG:https://metalarea.org/images/spectrogram/2021_Oct/de0dc151a112d3dc68c5bee0d0e190c1.png)
Input File: 01. Vile Seeds Of Wasteful Vomiting - Drowning In Vomit.mp3
Channels : 2
Sample Rate : 44100
Precision : 16-bit
Duration : 00:01:47.50 = 4740882 samples = 8062.72 CDDA sectors
File Size : 4.45M
Bit Rate : 332k
Sample Encoding: MPEG audio (layer I, II or III)
Comments :
Title=Drowning In Vomit
Artist=Vile Seeds Of Wasteful Vomiting
Album=VxSxOxWxV vs Leninist Necrophile
Tracknumber=1
Year=2017



Register


Go to the top of the page
  Insert nick Quick quote
+Quote Post

Reply to this topicStart new topic
1 User(s) are reading this topic (1 Guests and 0 Anonymous Users)
0 Members:

 



- Lo-Fi Version Support form
Copyrights and abuse reports form
Time is now: 4th December 2021 - 11:20:04