Welcome Guest ( Log In | Register )

> Releases Upload / Добавление релизов

Добавить релиз тут / Click here to add release
Рекомендованные обменники / Recommended file shares

> Necrok.I.L.L.Dozer - Misunderstood & Outpouring Of Reasons Sterility [compilation] (2018), Grindcore
post Oct 18 2021, 13:21:16
Post #1

Сволочь обыкновенная
**************
Group: Металариец
Posts: 2,899
Releases: 175
From: Брест
On Forums: 13 years 7 months
Thanks: 4388 time(s)
Belarus


(IMG:https://metalarea.org/images/audiocovers/2021_Oct/acov_tid356898_thumb.jpg)

*Artist: Necrok.I.L.L.Dozer
*Album: Misunderstood & Outpouring Of Reasons Sterility [compilation]
*Year: 2018
*Genre: Grindcore
*Country: Russian Federation (IMG:https://metalarea.org/forum/style_images/flags/Russian%20Federation.png)
*Format: mp3@CBR320kbps
*Size: 117MB

Tracklist:
Misunderstood (EP):
01. The Killing Doze (Endless Geterogenetic Manufactory) 00:51
02. Delict's Desiderate 01:40
03. Doors Into Impiria 03:14
04. Seven Blows 00:16
05. Calm Waters 01:54
06. The Stories 01:18
07. Enjoy Your Corpse 02:05
08. The Kill Session 00:47
09. Agonizing Burden 00:59
Outpouring Of Reasons Sterility (Demo):
10. Outpouring Of Reasons Sterility 01:56
11. Paralyse Smells Frost Odour 02:23
12. Fuck You 01:39
13. Two-Three-Two-Four 03:48
14. Killing Doze 00:58
15. Doors In Empiria 03:32
16. One-Three 02:29
17. Enjoy Membrane Your Corpse 02:31
18. Deicide 02:23
19. Reborn With Atavistic Signs 02:04
20. Seven Blows 00:14
21. Calm Waters 02:28
22. Five-Six 01:56
******************************
Total playing time: 41:25

Extended info
Отличное переиздание от Metal Race (MR 051) двух знаковых grindcore релизов нашей сцены - демо 1992 года Outpouring Of Reasons Sterility и Ep 1993 года Misunderstood (Ep).
Однозначный musthave!

Пока еще можно успеть приобрести тут :


Technical info
(IMG:https://metalarea.org/images/spectrogram/2021_Oct/f9b9c76afd30a2db5691e6512e6156cb.png)
Input File: 01 - The Killing Doze (Endless Geterogenetic Manufactory).mp3
Channels : 2
Sample Rate : 44100
Precision : 16-bit
Duration : 00:00:51.21 = 2258493 samples = 3840.97 CDDA sectors
File Size : 2.06M
Bit Rate : 321k
Sample Encoding: MPEG audio (layer I, II or III)
Comments :
Title=The Killing Doze (Endless Geterogenetic Manufactory)
Artist=NecroK.I.L.L.Dozer
Album=Misunderstood - Outpouring Of Reasons Sterility (Compilation)
Tracknumber=1/22
Year=2018
Genre=Death Metal



Register


Go to the top of the page
  Insert nick Quick quote
+Quote Post
 
Start new topic
Replies (1 - 6)
post Oct 18 2021, 18:00:27
Post #2

A.M.S.G.
**************
Group: Металариец
Posts: 2,704
Releases: 52
From: Sitra Achra
On Forums: 13 years 7 months
Thanks: 1696 time(s)
Unknown


В начале 90х нравилось,причем так нормально,а не так давно переслушал,что-то вообще не зашло,попробую еще раз (IMG:style_emoticons/default/smile1.gif)


Thanks:
(1) spazm,
Go to the top of the page
  Insert nick Quick quote
+Quote Post
post Oct 18 2021, 22:36:56
Post #3

Сволочь обыкновенная
**************
Group: Металариец
Posts: 2,899
Releases: 175
From: Брест
On Forums: 13 years 7 months
Thanks: 4388 time(s)
Belarus


ЦИТАТА(Unknown @ 18th October 2021 - 20:00:27) *
В начале 90х нравилось,причем так нормально,а не так давно переслушал,что-то вообще не зашло,попробую еще раз

Вполне можно понять, но Misunderstood мне запал сразу, - просто, но со вкусом, без выделонов и сразу качественная классика. Отдельно от альбома мне крайне нравится индустриальная Agonizing Burden
Go to the top of the page
  Insert nick Quick quote
+Quote Post
post Oct 19 2021, 12:23:23
Post #4

Group: Подсевший
Posts: 33
Releases: 0
On Forums: 9 years 9 months
Thanks: 44 time(s)
Hungary




Thanks:
(1) merfo,
Go to the top of the page
  Insert nick Quick quote
+Quote Post
post Oct 19 2021, 15:13:36
Post #5

...
**************
Group: Металариец
Posts: 5,047
Releases: 512
From: МОРсквы
On Forums: 15 years 1 month
Thanks: 7682 time(s)
Russian Federation


ЦИТАТА(Unknown @ 18th October 2021 - 20:00:27) *
В начале 90х нравилось,причем так нормально,а не так давно переслушал,что-то вообще не зашло,попробую еще раз

музыку надо слушать в свое время, в середине 90х - это было что-то! наше родное! да и грайнд еще не заездили до неприличия. сейчас она, конечно же, безнадежно устарела, поностальгировать можно, ну и для коллекции диск приобрести.
Go to the top of the page
  Insert nick Quick quote
+Quote Post
post Oct 19 2021, 16:16:46
Post #6

Литр
*
Group: Подсевший
Posts: 99
Releases: 0
On Forums: 14 years 5 months
Thanks: 62 time(s)
Russian Federation


Музыка хороша, но названия песен... боже))) Они их промтом переводили чтоль...
Go to the top of the page
  Insert nick Quick quote
+Quote Post
post Oct 20 2021, 09:10:26
Post #7

Восемь Литров
********
Group: Металариец
Posts: 887
Releases: 37
From: Санкт-Петербург
On Forums: 15 years 6 months
Thanks: 2525 time(s)
Russian Federation


Хороший материал, ознакомился с интересом, ранее не слышал. На демке, конечно, какчество хромает, но ипиха вообще хороша, умели же раньше искреннюю музыку делать, да и сейчас слушается очень достойно.


Thanks:
(1) spazm,
Go to the top of the page
  Insert nick Quick quote
+Quote Post

Reply to this topicStart new topic
2 User(s) are reading this topic (2 Guests and 0 Anonymous Users)
0 Members:

 



- Lo-Fi Version Support form
Copyrights and abuse reports form
Time is now: 27th November 2021 - 01:01:45