Welcome Guest ( Log In | Register )

Объявления

* gmail.com упорно продолжает считать почту с нас "unsolicited" и отбивает в том числе и письма активации, поэтому просьба использовать альтернативные почтовые ящики.
------------
* gmail.com continues reject all mail from us as "unsolicited" (activation mails too) therefore please use alternate mail servers.
> Wallfahrer - :A.A.S.D.W: [ep] (2021), Black Metal (D4)
post Oct 18 2021, 20:27:53
Post #1

funeral doom fan
Group Icon
Group: S-moderation team
Posts: 5,881
Releases: 3524
From: Ростов-на-Дону
On Forums: 18 years 5 months
Thanks: 64792 time(s)
Russian Federation


(IMG:http://metalarea.org/images/audiocovers/2021_Oct/acov_tid356911_thumb.jpg)

*Artist: Wallfahrer
*Album: :A.A.S.D.W: [ep]
*Year: 2021
*Genre: Black Metal
*Country: Germany (IMG:http://metalarea.org/forum/style_images/flags/Germany.png)
*Format: mp3@CBR320kbps
*Size: 49MB

Tracklist:
1. Am Anfang stand das Wort 10:59
2. Im Reich von Mammons Erben (Versuchung & Verblendung) 09:22
******************************
Total playing time: 20:21



Technical info
(IMG:http://metalarea.org/images/spectrogram/2021_Oct/5258834072c293308b84275efd64dae4.png)
Input File: 02 - Im Reich von Mammons Erben (Versuchung & Verblendung).mp3
Channels : 2
Sample Rate : 44100
Precision : 16-bit
Duration : 00:09:22.58 = 24809822 samples = 42193.6 CDDA sectors
File Size : 22.7M
Bit Rate : 323k
Sample Encoding: MPEG audio (layer I, II or III)
Comments :
Title=Im Reich von Mammons Erben (Versuchung & Verblendung)
Artist=Wallfahrer
Album=:A.A.S.D.W:
Tracknumber=2
Year=2021



Register


Go to the top of the page
  Insert nick Quick quote
+Quote Post
 
Start new topic
Replies (1 - 1)
post Apr 3 2024, 01:15:23
Post #2

Правь статус, ####!111
**************
Group: Металариец
Posts: 8,804
Releases: 197
From: HELL
On Forums: 17 years 8 months
Thanks: 30555 time(s)
Uruguay


320
Register


Thanks:
(1) Boozer,
Go to the top of the page
  Insert nick Quick quote
+Quote Post

Reply to this topicStart new topic
1 User(s) are reading this topic (1 Guests and 0 Anonymous Users)
0 Members:

 



- Lo-Fi Version Support form
Copyrights and abuse reports form
Time is now: 29th May 2024 - 09:38:01