Welcome Guest ( Log In | Register )

> U.D.O. - Game Over (2021), Heavy Metal (D)
post Oct 19 2021, 16:40:06
Post #1

Маньяк
**********
Group: Металариец
Posts: 1,094
Releases: 934
On Forums: 1 year 7 months
Thanks: 24900 time(s)
United States


(IMG:https://metalarea.org/images/audiocovers/2021_Oct/acov_tid356933_thumb.jpg)

*Artist: U.D.O.
*Album: Game Over
*Year: 2021
*Genre: Heavy Metal
*Country: Germany (IMG:https://metalarea.org/forum/style_images/flags/Germany.png)
*Format: mp3@CBR320kbps
*Size: 188MB

Tracklist:
01. Fear Detector 04:20
02. Holy Invaders 03:26
03. Prophecy 04:41
04. Empty Eyes 03:52
05. I See Red 03:16
06. Metal Never Dies 05:06
07. Kids And Guns 04:07
08. Like A Beast 05:02
09. Don't Wanna Say Goodbye 04:12
10. Unbroken 03:13
11. Marching Tank 05:06
12. Thunder Road 04:04
13. Midnight Stranger 05:29
14. Speed Seeker 04:34
15. Time Control 04:16
16. Metal Damnation 04:01
17. Wilder Life (Japan Bonus Track) 04:09
******************************
Total playing time: 1:12:54



Extended info
Japanese Edition



Technical info
(IMG:https://metalarea.org/images/spectrogram/2021_Oct/667882c9fd5850c97495cae39e9f9739.png)
Input File: 02. Holy Invaders.mp3
Channels : 2
Sample Rate : 44100
Precision : 16-bit
Duration : 00:03:26.96 = 9126760 samples = 15521.7 CDDA sectors
File Size : 8.58M
Bit Rate : 332k
Sample Encoding: MPEG audio (layer I, II or III)
Comments :
Title=Holy Invaders
Artist=U.D.O.
Album=Game Over [Japan Edition]
Tracknumber=02/17
Year=2021
Discnumber=1/1



Register


Go to the top of the page
  Insert nick Quick quote
+Quote Post
2 Pages V  < 1 2  
Start new topic
Replies (30 - 33)
post Oct 24 2021, 13:26:47
Post #31

Old School Metal
**************
Group: Металариец
Posts: 4,638
Releases: 0
From: г. Минск
On Forums: 13 years 8 months
Thanks: 12611 time(s)
Belarus



U.D.O. - Game Over (2021)[AFM Records, AFM 753-9]


(IMG:https://a.radikal.ru/a19/2110/41/afd1920455e7.jpg)


Format: mp3@320kbps (Lame 3.93.1) + Covers
Register

Lossless: FLAC (image+.cue+.log) + Covers
Register



Go to the top of the page
  Insert nick Quick quote
+Quote Post
post Oct 24 2021, 13:58:38
Post #32

Мегаманьяк
***********
Group: Металариец
Posts: 1,835
Releases: 0
From: Мелитополь
On Forums: 14 years 10 months
Thanks: 1315 time(s)
Russian Federation


На этой обложке и на Стимхаммере явно один и тот же чувак (IMG:style_emoticons/default/smile1.gif)
Go to the top of the page
  Insert nick Quick quote
+Quote Post
post Oct 28 2021, 09:17:33
Post #33

Ъ
**************
Group: Металариец
Posts: 11,110
Releases: 9
On Forums: 13 years 10 months
Thanks: 2237 time(s)
Sweden


Чет вы перехвалили деда, скучный, затянутый альбом.


Thanks:
(1) Quacksha,
Go to the top of the page
  Insert nick Quick quote
+Quote Post
post Oct 29 2021, 19:59:33
Post #34

Добрейшей души Мегаманьяк
**************
Group: Металариец
Posts: 2,077
Releases: 0
From: Bashkortostan, Таптыҡ
On Forums: 14 years 9 months
Thanks: 994 time(s)
Russian Federation


ЦИТАТА(Penetralia @ Oct 24 2021, 15:58:38) *
На этой обложке и на Стимхаммере явно один и тот же чувак


Предположу, что этот же чувак, тока без перщаток, был и на Balls to the Wall
Go to the top of the page
  Insert nick Quick quote
+Quote Post

2 Pages V  < 1 2
Reply to this topicStart new topic
2 User(s) are reading this topic (2 Guests and 0 Anonymous Users)
0 Members:

 



- Lo-Fi Version Support form
Copyrights and abuse reports form
Time is now: 3rd December 2022 - 17:52:39