Welcome Guest ( Log In | Register )

> Releases Upload / Добавление релизов

Добавить релиз тут / Click here to add release
Рекомендованные обменники / Recommended file shares

> Sinister - EPs [compilation] (2021), Thrash Metal (D)
post Oct 19 2021, 19:46:49
Post #1

Правь статус, 616
**************
Group: Металариец
Posts: 7,221
Releases: 5651
From: 55°35’N 38°08’E
On Forums: 13 years 4 months
Thanks: 104044 time(s)
Unknown


(IMG:https://metalarea.org/images/audiocovers/2021_Oct/acov_tid356946_thumb.jpg)

*Artist: Sinister
*Album: EPs [compilation]
*Year: 2021
*Genre: Thrash Metal
*Country: United States (IMG:https://metalarea.org/forum/style_images/flags/United%20States.png)
*Format: mp3@CBR320kbps
*Size: 122MB

Tracklist:
1. Distortions of Reality 06:20
2. Brain Dead 03:35
3. Destiny of Man 03:56
4. Bastard Child 06:44
5. Armor 06:36
6. The Pawn 03:39
7. Why 03:51
8. Sentence of Fear 04:58
9. The Witch 03:57
10. Into the Abyss 04:23
11. Razor Eater 04:28
******************************
Total playing time: 52:27


(IMG:https://metalarea.org/images/youtube.png)

Extended info
1-5 "Last Hope Cemetary" (Demo) 1988
6-11 "Up from the Abyss" (Demo) 1990


Technical info
(IMG:https://metalarea.org/images/spectrogram/2021_Oct/92e470942cdb17b3c2507eaead3e05fb.png)
Input File: 01. Distortions of Reality.mp3
Channels : 2
Sample Rate : 44100
Precision : 16-bit
Duration : 00:06:20.29 = 16770701 samples = 28521.6 CDDA sectors
File Size : 15.3M
Bit Rate : 323k
Sample Encoding: MPEG audio (layer I, II or III)
Comments :
Title=Distortions of Reality
Artist=Sinister
Album=EPs
Tracknumber=01
Year=2021
Genre=Thrash Metal
Discnumber=1



Register


Go to the top of the page
  Insert nick Quick quote
+Quote Post
 
Start new topic
Replies (1 - 2)
post Oct 21 2021, 13:35:31
Post #2

Правь статус, 616
**************
Group: Металариец
Posts: 7,221
Releases: 5651
From: 55°35’N 38°08’E
On Forums: 13 years 4 months
Thanks: 104044 time(s)
Unknown


FLAC

Register


Thanks:
Go to the top of the page
  Insert nick Quick quote
+Quote Post
post Nov 25 2021, 09:04:09
Post #3

добрый мизантроп
**************
Group: Металариец
Posts: 2,600
Releases: 1
From: Менск
On Forums: 11 years 2 weeks
Thanks: 1134 time(s)
Madagascar


(IMG:style_emoticons/default/27.gif) (IMG:style_emoticons/default/9.gif)
Go to the top of the page
  Insert nick Quick quote
+Quote Post

Reply to this topicStart new topic
2 User(s) are reading this topic (2 Guests and 0 Anonymous Users)
0 Members:

 



- Lo-Fi Version Support form
Copyrights and abuse reports form
Time is now: 29th November 2021 - 07:50:00