Welcome Guest ( Log In | Register )

> И неформату есть предел.

Рэп/хип-хоп/шансон/поп удаляются. Для них есть свои порталы.

 
Reply to this topicStart new topic
> Child Support - Demo [demo] (2013), Hardcore Punk/Powerviolence
post Oct 20 2021, 14:23:56
Post #1

Правь статус, ####!111
**************
Group: Металариец
Posts: 2,029
Releases: 241
From: Omsk, Siberia
On Forums: 12 years 8 months
Thanks: 4831 time(s)
Russian Federation


(IMG:http://metalarea.org/images/audiocovers/2021_Oct/acov_tid356953_thumb.jpg)

*Artist: Child Support
*Album: Demo [demo]
*Year: 2013
*Genre: Hardcore Punk/Powerviolence
*Country: United States (IMG:http://metalarea.org/forum/style_images/flags/United%20States.png)
*Format: mp3@CBR320kbps
*Size: 25MB

Tracklist:
1. Intro/Failure 01:47
2. All Alone 01:13
3. Backburner 01:17
4. World On Fire 00:56
5. Damn...... 01:38
6. Lies 01:39
7. Hurt You 02:23
******************************
Total playing time: 10:57



Extended info
Child Support was a hardcore/punk band from Raleigh, North Carolina.

Line-up:
Alec - vocals
Joe - bass
Ryan - guitar
Eli - drums


Technical info
(IMG:http://metalarea.org/images/spectrogram/2021_Oct/0e8aefa8b3c16582e8d5ae1f1700c18d.png)
Input File: 02 All Alone.mp3
Channels : 2
Sample Rate : 44100
Precision : 16-bit
Duration : 00:01:13.64 = 3247656 samples = 5523.22 CDDA sectors
File Size : 3.07M
Bit Rate : 334k
Sample Encoding: MPEG audio (layer I, II or III)
Comments :
Title=All Alone
Artist=Child Support
Album=Demo
Tracknumber=2
Year=2013
Genre=Hardcore/Punk



Register


Thanks:
Go to the top of the page
  Insert nick Quick quote
+Quote Post

Reply to this topicStart new topic
1 User(s) are reading this topic (1 Guests and 0 Anonymous Users)
0 Members:

 



- Lo-Fi Version Support form
Copyrights and abuse reports form
Time is now: 29th November 2021 - 06:26:03