Welcome Guest ( Log In | Register )

> Necrofier - Prophecies Of Eternal Darkness (2021), Melodic Black Metal
post Oct 20 2021, 20:25:38
Post #1

Правь статус, ####!111
**************
Group: Металариец
Posts: 35,117
Releases: 26118
From: Г.Харьков
On Forums: 11 years 9 months
Thanks: 562154 time(s)
Ukraine


(IMG:https://metalarea.org/images/audiocovers/2021_Oct/acov_tid356967_thumb.jpg)

*Artist: Necrofier
*Album: Prophecies Of Eternal Darkness
*Year: 2021
*Genre: Melodic Black Metal
*Country: United States (IMG:https://metalarea.org/forum/style_images/flags/United%20States.png)
*Format: mp3@CBR320kbps
*Size: 85MB

Tracklist:
1. The Black Flame Burns 04:03
2. Darker than the Night 05:09
3. Madness Descends 05:37
4. Return to Chaos 04:57
5. Death Comes for Us All 04:21
6. Unholy Hunger 03:37
7. Betrayal of the Queen 04:23
8. Plague Requiem 03:47
******************************
Total playing time: 35:54




Extended info
FLAC-Rip
Mat Aleman Bass
See also: Malignant Altar, Oceans of Slumber, ex-War Master
Dobber Beverly Drums
See also: Demoniacal Genuflection, Infernal Dominion, Ingurgitate, Malignant Altar, Oceans of Slumber, Sect of Execration, ex-Braced for Nails, ex-Insect Warfare, ex-War Master, ex-Images of Violence, ex-Manticore (live), ex-Viral Load, ex-Inextricable Entrails
Joshua Bokemeyer Guitars
See also: Church of Disgust, Malignant Altar, ex-Lamentation, Mangled State, ex-Common Ignorance, ex-Decayed Race, ex-Flick Knife, ex-Hot Cakes, ex-Leather Daddie
Christian Larson Vocals, Guitars
See also: Graven Rite, Night Cobra, ex-Eternal Champion, ex-Venomous Maximus


Technical info
(IMG:https://metalarea.org/images/spectrogram/2021_Oct/6e3addb7d5be3c74f41453fc6918a1ec.png)
Input File: 03. Madness Descends.mp3
Channels : 2
Sample Rate : 44100
Precision : 16-bit
Duration : 00:05:37.07 = 14864611 samples = 25280 CDDA sectors
File Size : 13.9M
Bit Rate : 330k
Sample Encoding: MPEG audio (layer I, II or III)
Comments :
Title=Madness Descends
Artist=Necrofier
Album=Prophecies of Eternal Darkness
Tracknumber=03
Year=2021
Genre=Metal



Register


Go to the top of the page
  Insert nick Quick quote
+Quote Post
 
Start new topic
Replies (1 - 6)
post Oct 21 2021, 01:45:38
Post #2

Правь статус, ####!111
**************
Group: Металариец
Posts: 35,117
Releases: 26118
From: Г.Харьков
On Forums: 11 years 9 months
Thanks: 562154 time(s)
Ukraine


FLAC (Tracks) 245 mb
Register


Go to the top of the page
  Insert nick Quick quote
+Quote Post
post Oct 23 2021, 12:41:33
Post #3

Ъ
**************
Group: Металариец
Posts: 11,214
Releases: 9
On Forums: 15 years 1 month
Thanks: 2274 time(s)
Sweden


Третьесорт.
Go to the top of the page
  Insert nick Quick quote
+Quote Post
post Oct 30 2021, 19:30:39
Post #4

Маньяк
**********
Group: Металариец
Posts: 1,121
Releases: 4
From: Харьков
On Forums: 15 years 6 months
Thanks: 416 time(s)
Ukraine


Кое-кому пора попить что-нибудь от депрессии. Вокруг всё третьесорт.
Релиз интересный.


Thanks:
Go to the top of the page
  Insert nick Quick quote
+Quote Post
post Nov 4 2021, 10:24:33
Post #5

MDM-Thrash Metal
**************
Group: Металариец
Posts: 12,269
Releases: 1716
From: Одесса
On Forums: 16 years 6 months
Thanks: 39952 time(s)
Ukraine


Неплохо, но однообразно.


Thanks:
(1) Ingvar,
Go to the top of the page
  Insert nick Quick quote
+Quote Post
post Jan 11 2023, 12:23:34
Post #6

И всё в тебе, И ты — во всём
**************
Group: Металариец
Posts: 8,467
Releases: 13
On Forums: 14 years 3 months
Thanks: 4308 time(s)
Unknown


Годный альбом, как почти всё что эта тусовка металюг делает.
Go to the top of the page
  Insert nick Quick quote
+Quote Post
post Jun 5 2023, 12:34:52
Post #7

Правь статус, ####!111
**************
Group: Металариец
Posts: 3,132
Releases: 0
On Forums: 15 years 2 weeks
Thanks: 1533 time(s)
South Korea


320 kbps from the web:
Register


[All credits go to the band and the posters].


Thanks:
(1) Occultas,
Go to the top of the page
  Insert nick Quick quote
+Quote Post

Reply to this topicStart new topic
2 User(s) are reading this topic (2 Guests and 0 Anonymous Users)
0 Members:

 



- Lo-Fi Version Support form
Copyrights and abuse reports form
Time is now: 3rd March 2024 - 07:10:21