Welcome Guest ( Log In | Register )

Объявления

* gmail.com упорно продолжает считать почту с нас "unsolicited" и отбивает в том числе и письма активации, поэтому просьба использовать альтернативные почтовые ящики.
------------
* gmail.com continues reject all mail from us as "unsolicited" (activation mails too) therefore please use alternate mail servers.
> Slapdown - Fundamentally Wicked (2021), Death/Thrash Metal
post Oct 22 2021, 03:36:08
Post #1

Правь статус, ####!111
**************
Group: Металариец
Posts: 36,459
Releases: 27186
From: Г.Харьков
On Forums: 12 years 2 months
Thanks: 592661 time(s)
Ukraine


(IMG:https://metalarea.org/images/audiocovers/2021_Oct/acov_tid357033_thumb.jpg)

*Artist: Slapdown
*Album: Fundamentally Wicked
*Year: 2021
*Genre: Death/Thrash Metal
*Country: France (IMG:https://metalarea.org/forum/style_images/flags/France.png)
*Format: mp3@CBR320kbps
*Size: 85MB

Tracklist:
01. Intro
02. Disappear
03. Beware
04. Antes Que Tu Mueras
05. The Priceless Taste of Flesh
06. I Will Break Your Neck
07. Hatred
08. Raging Cumshot
09. Built by Depravity
10. Worship
11. Bring the Living to the Grave
12. My Bloodlust
13. Born Evil
******************************
Total playing time: 37:59



Extended info
Nicolas Simeray Bass (2013-present)
Olivier Simeray Drums (2013-present)
Vincent Lacagne Guitars (lead) (2013-present)
Esteban Ramirez Vocals (lead) (2015-present)


Technical info
(IMG:https://metalarea.org/images/spectrogram/2021_Oct/b7e52c007dd0b6f235ba0af798a86f15.png)
Input File: 06. I Will Break Your Neck.mp3
Channels : 2
Sample Rate : 44100
Precision : 16-bit
Duration : 00:04:08.00 = 10936800 samples = 18600 CDDA sectors
File Size : 9.92M
Bit Rate : 320k
Sample Encoding: MPEG audio (layer I, II or III)
Comments :
Title=I Will Break Your Neck
Artist=Slapdown
Album=Fundamentally Wicked
Tracknumber=6
Year=2021
Genre=Metal



Register


Go to the top of the page
  Insert nick Quick quote
+Quote Post
 
Start new topic
Replies (1 - 4)
post Oct 23 2021, 11:58:01
Post #2

Правь статус, ####!111
**************
Group: Металариец
Posts: 2,790
Releases: 0
From: APATIN, SERBIA, АПАТИН, СЕРБИЯ
On Forums: 16 years 9 months
Thanks: 8928 time(s)



Flac

Register


Thanks:
Go to the top of the page
  Insert nick Quick quote
+Quote Post
post Oct 23 2021, 18:16:57
Post #3

Маньяк
**********
Group: Металариец
Posts: 1,077
Releases: 3
From: Украина
On Forums: 6 years 2 days
Thanks: 601 time(s)
Ukraine


ЦИТАТА(Samaritianin @ Oct 22 2021, 05:36:08) *
*Genre: Death/Thrash Metal

Облегченная сместь Aborted и Benighted.


Thanks:
Go to the top of the page
  Insert nick Quick quote
+Quote Post
post Oct 24 2021, 14:58:01
Post #4

Group: Подсевший
Posts: 37
Releases: 0
From: Львів!
On Forums: 5 years 7 months
Thanks: 21 time(s)
Ukraine


Надо брать!
Go to the top of the page
  Insert nick Quick quote
+Quote Post
post Nov 4 2021, 10:04:48
Post #5

MDM-Thrash Metal
**************
Group: Металариец
Posts: 12,538
Releases: 1749
From: Одесса
On Forums: 16 years 11 months
Thanks: 40597 time(s)
Ukraine




Thanks:
(1) Ingvar,
Go to the top of the page
  Insert nick Quick quote
+Quote Post

Reply to this topicStart new topic
1 User(s) are reading this topic (1 Guests and 0 Anonymous Users)
0 Members:

 



- Lo-Fi Version Support form
Copyrights and abuse reports form
Time is now: 23rd July 2024 - 21:58:52