Welcome Guest ( Log In | Register )

 
Reply to this topicStart new topic
> Green Lung - Black Harvest (2021), Stoner/Doom Metal/Rock
post Oct 22 2021, 17:37:32
Post #1

дьявол, воплоти
**********
Group: Металариец
Posts: 1,171
Releases: 9
On Forums: 12 years 2 months
Thanks: 1577 time(s)
Ukraine


(IMG:https://metalarea.org/images/audiocovers/2021_Oct/acov_tid357047_thumb.jpg)

*Artist: Green Lung
*Album: Black Harvest
*Year: 2021
*Genre: Stoner/Doom Metal/Rock
*Country: United Kingdom (IMG:https://metalarea.org/forum/style_images/flags/United%20Kingdom.png)
*Format: mp3@CBR320kbps
*Size: 100MB

Tracklist:
1. The Harrowing 02:19
2. Old Gods 03:58
3. Leaders of the Blind 04:42
4. Reaper’s Scythe 04:23
5. Graveyard Sun 05:41
6. Black Harvest 02:39
7. Upon the Altar 04:38
8. You Bear the Mark 04:12
9. Doomsayer 05:26
10. Born to a Dying World 05:09
******************************
Total playing time: 43:07



Technical info
(IMG:https://metalarea.org/images/spectrogram/2021_Oct/289738af600128ba938f8f40bf5c4b64.png)
Input File: 02 - Old Gods.mp3
Channels : 2
Sample Rate : 44100
Precision : 16-bit
Duration : 00:03:58.00 = 10495800 samples = 17850 CDDA sectors
File Size : 9.74M
Bit Rate : 327k
Sample Encoding: MPEG audio (layer I, II or III)
Comments :
Title=Old Gods
Artist=Green Lung
Album=Black Harvest
Tracknumber=2
Year=2021-10-22
Genre=Metal
Discnumber=1



Register


Go to the top of the page
  Insert nick Quick quote
+Quote Post

Reply to this topicStart new topic
2 User(s) are reading this topic (2 Guests and 0 Anonymous Users)
0 Members:

 



- Lo-Fi Version Support form
Copyrights and abuse reports form
Time is now: 3rd December 2022 - 00:44:25