Welcome Guest ( Log In | Register )

> И неформату есть предел.

Рэп/хип-хоп/шансон/поп удаляются. Для них есть свои порталы.

> Deep Purple - 7 And 7 Is [single] (2021), Hard Rock (D30)
post Oct 23 2021, 18:40:44
Post #1

MDM-Thrash Metal
**************
Group: Металариец
Posts: 10,702
Releases: 1345
From: Одесса
On Forums: 14 years 3 months
Thanks: 32509 time(s)
Ukraine


(IMG:http://metalarea.org/images/audiocovers/2021_Oct/acov_tid357137_thumb.jpg)

*Artist: Deep Purple
*Album: 7 And 7 Is [single]
*Year: 2021
*Genre: Hard Rock
*Country: United Kingdom (IMG:http://metalarea.org/forum/style_images/flags/United%20Kingdom.png)
*Format: mp3@CBR320kbps
*Size: 5MB

Tracklist:
1. 7 and 7 Is (Love cover) 02:28
******************************
Total playing time: 2:28

)

Extended info
Ian Paice Drums, Percussion (1968-1976, 1984-present)
See also: ex-Gary Moore, ex-Green Bullfrog, ex-Paice, Ashton & Lord, ex-Roundabout, ex-The Maze, ex-The MI 5, ex-The Shindigs, ex-Whitesnake
Roger Glover Bass, Vocals (1969-1973, 1984-present)
See also: Roger Glover, ex-Rainbow, ex-David Coverdale Band, ex-Episode Six, ex-Gillan & Glover, ex-Marlon
Ian Gillan Vocals (1969-1973, 1984-1989, 1993-present)
See also: ex-WhoCares, Ian Gillan, ex-Black Sabbath, ex-Episode Six, ex-Garth Rockett and the Moonshiners, ex-Gillan, ex-Gillan & Glover, ex-Ian Gillan Band, ex-The Javelins
Steve Morse Guitars, Vocals (1994-present)
See also: Angelfire, Dixie Dregs, Flying Colors, Steve Morse Band, ex-Kansas, ex-Living Loud
Don Airey Keyboards, Organ (2002-present)
See also: Don Airey, ex-Empire, ex-Ozzy Osbourne, ex-Rainbow, ex-The Cage, ex-Dario Mollo's Crossbones (live), ex-Air Pavilion, ex-Andrew Lloyd Webber, ex-Colosseum II, ex-Cozy Powell, ex-Gary Moore, ex-Hammer, ex-Jethro Tull, ex-Living Loud, ex-Michael Schenker Group, ex-Quatermass, ex-Silver, ex-Strawbs, ex-Ten, ex-The Company of Snakes, ex-Wishbone Ash, ex-Graham Bonnet (live), ex-Micky Moody (live), ex-The Snakes (live), ex-Uli Jon Roth (live), ex-Uriah Heep (live)


Technical info
(IMG:http://metalarea.org/images/spectrogram/2021_Oct/6d55a085a7fa69d53eb7ea9c3d122325.png)
Input File: Deep Purple - 7 and 7 Is.mp3
Channels : 2
Sample Rate : 48000
Precision : 16-bit
Duration : 00:02:28.75 = 7140096 samples ~ 11156.4 CDDA sectors
File Size : 5.95M
Bit Rate : 320k
Sample Encoding: MPEG audio (layer I, II or III)



Register


Go to the top of the page
  Insert nick Quick quote
+Quote Post
 
Start new topic
Replies (1 - 4)
post Oct 23 2021, 20:27:36
Post #2

Правь статус, ####!111
**************
Group: Металариец
Posts: 49,602
Releases: 894
On Forums: 12 years 6 months
Thanks: 45635 time(s)
Russian Federation


Ждём новый альбом (каверов) (IMG:style_emoticons/default/smile1.gif) .
Go to the top of the page
  Insert nick Quick quote
+Quote Post
post Oct 24 2021, 17:28:16
Post #3

Forever Underground
**************
Group: Металариец
Posts: 9,164
Releases: 0
On Forums: 6 years 7 months
Thanks: 12903 time(s)
Unknown


https://www.youtube.com/watch?v=JCW3324tUjA


Go to the top of the page
  Insert nick Quick quote
+Quote Post
post Oct 25 2021, 22:38:55
Post #4

Маньяк
**********
Group: Металариец
Posts: 1,239
Releases: 232
On Forums: 2 years 10 months
Thanks: 3508 time(s)
Canada


https://en.wikipedia.org/wiki/7_and_7_Is

"7 and 7 Is" is a song written by Arthur Lee and recorded by his band Love (1966).
Described as garage rock and proto-punk, the song was later covered by numerous bands, most notably the Ramones, Alice Cooper, The Electric Prunes, Billy Bragg, The Sidewinders, The Fuzztones, Rush and Deep Purple.


Thanks:
Go to the top of the page
  Insert nick Quick quote
+Quote Post
post Nov 7 2021, 12:57:15
Post #5

Правь статус, ####!111
**************
Group: Металариец
Posts: 49,602
Releases: 894
On Forums: 12 years 6 months
Thanks: 45635 time(s)
Russian Federation


Ещё один новый трэк:

Go to the top of the page
  Insert nick Quick quote
+Quote Post

Reply to this topicStart new topic
1 User(s) are reading this topic (1 Guests and 0 Anonymous Users)
0 Members:

 



- Lo-Fi Version Support form
Copyrights and abuse reports form
Time is now: 5th December 2021 - 02:43:30