Welcome Guest ( Log In | Register )

> Releases Upload / Добавление релизов

Добавить релиз тут / Click here to add release
Рекомендованные обменники / Recommended file shares

> Azzaya - Thy Satanick Ascension (2021), Black Metal
post Oct 23 2021, 20:19:10
Post #1

funeral doom fan
Group Icon
Group: S-moderation team
Posts: 5,346
Releases: 3003
From: Ростов-на-Дону
On Forums: 15 years 11 months
Thanks: 56795 time(s)
Russian Federation


(IMG:http://metalarea.org/images/audiocovers/2021_Oct/acov_tid357145_thumb.jpg)

*Artist: Azzaya
*Album: Thy Satanick Ascension
*Year: 2021
*Genre: Black Metal
*Country: International (IMG:http://metalarea.org/forum/style_images/flags/International.png)
*Format: mp3@CBR320kbps
*Size: 108MB

Tracklist:
1. Evoking The Khaosatan 03:55
2. Raging Satanik Aggression 04:15
3. Eathereal Kaozsphere Beginneth 04:08
4. Thy Satanick Ascension 03:44
5. Rytes Of Infernall Profonation 04:29
6. Infernal Pseudomonarchia 04:11
7. Empyreal Of The Lorde Infernall 04:40
8. Invocation Of The Kaosephiroth Mantra 04:25
9. Evoking The Rites Of The Sabbath 04:28
10. Outroduction (Satanik Tekvin II) 02:32
11. Satanik Tekvin 02:57
12. Se'irim Asa'el 03:25
******************************
Total playing time: 47:09



Extended info
Greece / Turkey / Portugal


Semiazaz Guitars, Bass
See also: Seed of Cain
Retrofornicator Guitars, Drums
See also: ex-Malade
Grito Vocals
See also: Mountain Hermit, Vintermørke, Κραυγή


Technical info
(IMG:http://metalarea.org/images/spectrogram/2021_Oct/8e3b6e38e7aec1f231b7bf8bf9afb55f.png)
Input File: 01 - Evoking The Khaosatan.mp3
Channels : 2
Sample Rate : 44100
Precision : 16-bit
Duration : 00:03:55.69 = 10394017 samples = 17676.9 CDDA sectors
File Size : 9.43M
Bit Rate : 320k
Sample Encoding: MPEG audio (layer I, II or III)
Comments :
Title=Evoking The Khaosatan
Artist=Azzaya
Album=Thy Satanick Ascension
Tracknumber=01
Year=2021



Register


Go to the top of the page
  Insert nick Quick quote
+Quote Post
 
Start new topic
Replies (1 - 4)
post Oct 24 2021, 09:43:34
Post #2

Четыре Литра
****
Group: Металариец
Posts: 322
Releases: 0
From: минск сити
On Forums: 12 years 5 months
Thanks: 168 time(s)
Belarus


Звучит как "бездарности всех стран соединяйтесь".
Go to the top of the page
  Insert nick Quick quote
+Quote Post
post Oct 24 2021, 21:04:48
Post #3

Group: Подсевший
Posts: 28
Releases: 0
From: Ottawa
On Forums: 11 months 1 week
Thanks: 0 time(s)
Brazil


Que porcaria.
Go to the top of the page
  Insert nick Quick quote
+Quote Post
post Nov 18 2021, 04:45:37
Post #4

i listen to black metal
**************
Group: Металариец
Posts: 3,112
Releases: 142
From: Москва
On Forums: 14 years 11 months
Thanks: 2374 time(s)
Russian Federation


ЦИТАТА(дивин @ Oct 24 2021, 11:43:34) *
Звучит как "бездарности всех стран соединяйтесь".

так больше половину команд в raw black так звучат.
Go to the top of the page
  Insert nick Quick quote
+Quote Post
post Nov 25 2021, 10:22:59
Post #5

добрый мизантроп
**************
Group: Металариец
Posts: 2,600
Releases: 1
From: Менск
On Forums: 11 years 2 weeks
Thanks: 1134 time(s)
Madagascar


ЦИТАТА(Victim of fate @ Nov 18 2021, 06:45:37) *
так больше половину команд в raw black так звучат.

Не, в данном случае чужие хорошие риффы в плохой аранжировке
Go to the top of the page
  Insert nick Quick quote
+Quote Post

Reply to this topicStart new topic
2 User(s) are reading this topic (2 Guests and 0 Anonymous Users)
0 Members:

 



- Lo-Fi Version Support form
Copyrights and abuse reports form
Time is now: 29th November 2021 - 07:18:17