Welcome Guest ( Log In | Register )

 
Reply to this topicStart new topic
> Green Lung - Free The Witch [ep] (2018), Stoner/Doom Metal/Rock
post Oct 24 2021, 09:07:37
Post #1

дьявол, воплоти
**********
Group: Металариец
Posts: 1,171
Releases: 9
On Forums: 12 years 2 months
Thanks: 1577 time(s)
Ukraine


(IMG:https://metalarea.org/images/audiocovers/2021_Oct/acov_tid357168_thumb.jpg)

*Artist: Green Lung
*Album: Free The Witch [ep]
*Year: 2018
*Genre: Stoner/Doom Metal/Rock
*Country: United Kingdom (IMG:https://metalarea.org/forum/style_images/flags/United%20Kingdom.png)
*Format: mp3@CBR320kbps
*Size: 70MB

Tracklist:
1. Lady Lucifer 05:17
2. Free the Witch 05:55
3. Living Fossil 05:35
4. Older than the Hills 07:47
5. When the Axe Comes Down (Bonus Track) 04:57
******************************
Total playing time: 29:31



Technical info
(IMG:https://metalarea.org/images/spectrogram/2021_Oct/ae4fcef542703fe7593bde272cc5a432.png)
Input File: 01. Lady Lucifer.mp3
Channels : 2
Sample Rate : 44100
Precision : 16-bit
Duration : 00:05:19.00 = 14067988 samples = 23925.1 CDDA sectors
File Size : 13.0M
Bit Rate : 326k
Sample Encoding: MPEG audio (layer I, II or III)
Comments :
Title=Lady Lucifer
Artist=Green Lung
Album=Free the Witch
Tracknumber=1
Year=2018-02-19
Genre=17
Discnumber=1



Register


Go to the top of the page
  Insert nick Quick quote
+Quote Post

Reply to this topicStart new topic
2 User(s) are reading this topic (2 Guests and 0 Anonymous Users)
0 Members:

 



- Lo-Fi Version Support form
Copyrights and abuse reports form
Time is now: 3rd December 2022 - 01:18:44