Welcome Guest ( Log In | Register )

> Releases Upload / Добавление релизов

Добавить релиз тут / Click here to add release
Рекомендованные обменники / Recommended file shares

> Somnent - Gardens From Graves (2021), Doom/Death Metal
post Oct 24 2021, 12:13:41
Post #1

Правь статус, ####!111
**************
Group: Металариец
Posts: 28,136
Releases: 20530
From: Г.Харьков
On Forums: 9 years 6 months
Thanks: 417913 time(s)
Unknown


(IMG:https://metalarea.org/images/audiocovers/2021_Oct/acov_tid357175_thumb.jpg)

*Artist: Somnent
*Album: Gardens From Graves
*Year: 2021
*Genre: Doom/Death Metal
*Country: United States (IMG:https://metalarea.org/forum/style_images/flags/United%20States.png)
*Format: mp3@CBR320kbps
*Size: 110MB

Tracklist:
1. Silhouette 07:04
2. Acquiescence 04:43
3. Despite the Scourge 07:28
4. Fragments 04:01
5. Gardens from Graves 06:16
6. Blackened Heart 05:03
7. Withered to a Shadow 05:29
8. Resolve 03:45
9. Fragments Acoustic 04:27
******************************
Total playing time: 48:16




Extended info
Giovanni A. Vigliotti Everything (2015-present)


Technical info
(IMG:https://metalarea.org/images/spectrogram/2021_Oct/431bac344932a552bff708a8019d34a4.png)
Input File: 07 - Withered to a Shadow.mp3
Channels : 2
Sample Rate : 44100
Precision : 16-bit
Duration : 00:05:29.34 = 14524026 samples = 24700.7 CDDA sectors
File Size : 13.3M
Bit Rate : 322k
Sample Encoding: MPEG audio (layer I, II or III)
Comments :
Title=Withered to a Shadow
Artist=Somnent
Album=Gardens from Graves
Tracknumber=7/9
Year=2021



Register


Go to the top of the page
  Insert nick Quick quote
+Quote Post
 
Start new topic
Replies (1 - 2)
post Oct 24 2021, 21:59:23
Post #2

Четыре Литра
****
Group: Металариец
Posts: 364
Releases: 0
On Forums: 3 years 9 months
Thanks: 143 time(s)
Belarus


По превью, это что-то радостное и безвкусное. Не рискнул изучать глубже.
Go to the top of the page
  Insert nick Quick quote
+Quote Post
post Nov 25 2021, 09:12:12
Post #3

добрый мизантроп
**************
Group: Металариец
Posts: 2,600
Releases: 1
From: Менск
On Forums: 11 years 2 weeks
Thanks: 1134 time(s)
Madagascar


По превью лёгкий дум. Интересны темы/проигрыши на высоких ладах гитары, делают каждую песню своеобразной и цепляют. Забираю.
Go to the top of the page
  Insert nick Quick quote
+Quote Post

Reply to this topicStart new topic
2 User(s) are reading this topic (2 Guests and 0 Anonymous Users)
0 Members:

 



- Lo-Fi Version Support form
Copyrights and abuse reports form
Time is now: 29th November 2021 - 06:43:29