Welcome Guest ( Log In | Register )

> Mshdr - Mshdr [ep] (2020), Blackened Death Metal
post Oct 26 2021, 11:32:00
Post #1

Девять Литров
*********
Group: Металариец
Posts: 929
Releases: 234
On Forums: 3 years 4 months
Thanks: 4096 time(s)
Russian Federation


(IMG:https://metalarea.org/images/audiocovers/2021_Oct/acov_tid357254_thumb.jpg)

*Artist: Mshdr
*Album: Mshdr [ep]
*Year: 2020
*Genre: Blackened Death Metal
*Country: Russian Federation (IMG:https://metalarea.org/forum/style_images/flags/Russian%20Federation.png)
*Format: mp3@CBR320kbps
*Size: 46MB

Tracklist:
1. Сломать колесо 01:23
2. Полный оборот 06:00
3. Шёпот Мордета 01:32
4. Падение Аридола 04:07
5. Машадар 02:47
6. Спуск в Шайол-Гул 03:09
7. Забвение без снов 02:18
******************************
Total playing time: 21:16





Technical info
(IMG:https://metalarea.org/images/spectrogram/2021_Oct/7f1310654c3ab280197014a30127dd44.png)
Input File: 04 - Падение Аридола.mp3
Channels : 2
Sample Rate : 44100
Precision : 16-bit
Duration : 00:04:07.74 = 10925158 samples = 18580.2 CDDA sectors
File Size : 9.91M
Bit Rate : 320k
Sample Encoding: MPEG audio (layer I, II or III)
Comments :
Title=Падение Аридола
Artist=MSHDR
Album=MSHDR [EP]
Tracknumber=04/07
Year=2020



Register


Go to the top of the page
  Insert nick Quick quote
+Quote Post
 
Start new topic
Replies (1 - 3)
post Jan 4 2022, 22:26:26
Post #2

antithesis
**************
Group: Металариец
Posts: 3,707
Releases: 35
From: VRN
On Forums: 12 years 4 months
Thanks: 2420 time(s)
Russian Federation


херасе. блэчина по Колесу Времени.
Go to the top of the page
  Insert nick Quick quote
+Quote Post
post Jan 5 2022, 04:42:29
Post #3

железный нечеловек
**********
Group: Металариец
Posts: 1,419
Releases: 3
From: Уфа
On Forums: 13 years 5 months
Thanks: 525 time(s)
Russian Federation


ЦИТАТА(Razorbladeswaltz @ Jan 5 2022, 02:26:26) *
херасе. блэчина по Колесу Времени.


По Колесу много групп существует. Первые на вскидку: Shaidar Logoth, Shayol Ghul, Manetheren, Myrddraal,Horn Of Valere. Все довольно неплохи.


Thanks:
Go to the top of the page
  Insert nick Quick quote
+Quote Post
post Jan 5 2022, 07:36:03    Сейчас играет: Suffering Sights - Punishment Voids
Post #4

antithesis
**************
Group: Металариец
Posts: 3,707
Releases: 35
From: VRN
On Forums: 12 years 4 months
Thanks: 2420 time(s)
Russian Federation


ЦИТАТА(cancer1974 @ Jan 5 2022, 08:42:29) *
По Колесу много групп существует. Первые на вскидку: Shaidar Logoth, Shayol Ghul, Manetheren, Myrddraal,Horn Of Valere. Все довольно неплохи.

понял, спасибо за ликбез. русскоязычных-то не было поди, один хрен.
Go to the top of the page
  Insert nick Quick quote
+Quote Post

Reply to this topicStart new topic
1 User(s) are reading this topic (1 Guests and 0 Anonymous Users)
0 Members:

 



- Lo-Fi Version Support form
Copyrights and abuse reports form
Time is now: 3rd October 2022 - 08:53:43