Welcome Guest ( Log In | Register )

> Others By No One - Book Ii: Where Stories Come From (2021), Progressive Metal/Rock Opera (D4)
post Oct 27 2021, 14:52:34
Post #1

Serial Uploader
Group Icon
Group: V.I.P
Posts: 39,559
Releases: 37683
From: Lithuania
On Forums: 14 years 7 months
Thanks: 474225 time(s)
Lithuania


(IMG:https://metalarea.org/images/audiocovers/2021_Oct/acov_tid357279_thumb.jpg)

*Artist: Others By No One
*Album: Book Ii: Where Stories Come From
*Year: 2021
*Genre: Progressive Metal/Rock Opera
*Country: United States (IMG:https://metalarea.org/forum/style_images/flags/United%20States.png)
*Format: mp3@CBR320kbps
*Size: 172MB

Tracklist:
01. Counting Raindrops 02:28
02. An Artwork; Clandestine 01:47
03. A Reverie to Quell the Giants 10:55
04. Right Side of the Brain 05:52
05. The Impassecopedum 14:17
06. Foxjune 04:28
07. Debt for Your Thoughts 05:21
08. Tomes 03:17
09. Tombs 04:01
10. The Tales of Nebulous Man 01:22
11. Well-Read 06:55
12. The Plight of Proxy 05:15
13. Where Stories Come From 08:35
******************************
Total playing time: 1:14:33




Technical info
(IMG:https://metalarea.org/images/spectrogram/2021_Oct/f92abc86b023c6c004bc39161304fb26.png)
Input File: 04 - Right Side of the Brain.mp3
Channels : 2
Sample Rate : 44100
Precision : 16-bit
Duration : 00:05:52.00 = 15523200 samples = 26400 CDDA sectors
File Size : 14.2M
Bit Rate : 324k
Sample Encoding: MPEG audio (layer I, II or III)
Comments :
Title=Right Side of the Brain
Artist=Others by No One
Album=Book II: Where Stories Come From
Tracknumber=4
Year=2021-10-22
Genre=Alternative
Discnumber=1



Register


Go to the top of the page
  Insert nick Quick quote
+Quote Post
 
Start new topic
Replies (1 - 2)
post Feb 18 2022, 00:46:45
Post #2

Going home. Flying high.
**************
Group: Металариец
Posts: 13,612
Releases: 0
From: The Land of Shadows
On Forums: 16 years 5 months
Thanks: 30464 time(s)
Russian Federation


from web
Register


Thanks:
(1) wreak,
Go to the top of the page
  Insert nick Quick quote
+Quote Post
post Dec 6 2022, 22:39:05
Post #3

21st Century Schizoid Man
**************
Group: Металариец
Posts: 7,842
Releases: 259
From: 1984
On Forums: 14 years 9 months
Thanks: 8159 time(s)
Liberia


Не цепануло. И это скорее экспериментал, нежели прог.
Go to the top of the page
  Insert nick Quick quote
+Quote Post

Reply to this topicStart new topic
1 User(s) are reading this topic (1 Guests and 0 Anonymous Users)
0 Members:

 



- Lo-Fi Version Support form
Copyrights and abuse reports form
Time is now: 5th February 2023 - 05:28:27