Welcome Guest ( Log In | Register )

> Steel Forge - As Nightmares Descend (2021), Melodic Death Metal
post Oct 30 2021, 16:52:03
Post #1

Правь статус, ####!111
**************
Group: Металариец
Posts: 30,923
Releases: 22794
From: Г.Харьков
On Forums: 10 years 6 months
Thanks: 477015 time(s)
Unknown


(IMG:https://metalarea.org/images/audiocovers/2021_Oct/acov_tid357515_thumb.jpg)

*Artist: Steel Forge
*Album: As Nightmares Descend
*Year: 2021
*Genre: Melodic Death Metal
*Country: United Kingdom (IMG:https://metalarea.org/forum/style_images/flags/United%20Kingdom.png)
*Format: mp3@CBR320kbps
*Size: 140MB

Tracklist:
1. March into Chaos
2. Echoes from the Past
3. Fall by the Saw
4. Taste of Fear
5. As Nightmares Descend
6. This Place Is Cursed
7. Judgement upon the Cursed Earth
8. Phantom Queen
9. Upon a Black Steed
******************************
Total playing time: 1:01:33




Extended info
Danny Hell Vocals (2015-present)
See also: ex-Gods of War
Brandon Kelly Guitars, Keyboards, Vocals (2018-present)
Jada Metcalfe-Judge Bass (2019-present)


Technical info
(IMG:https://metalarea.org/images/spectrogram/2021_Oct/0c28c33284fe18782b813e61c23f8675.png)
Input File: 07 - Judgement Upon The Cursed Earth.mp3
Channels : 2
Sample Rate : 44100
Precision : 16-bit
Duration : 00:04:53.66 = 12950318 samples = 22024.4 CDDA sectors
File Size : 11.8M
Bit Rate : 322k
Sample Encoding: MPEG audio (layer I, II or III)
Comments :
Title=Judgement Upon The Cursed Earth
Artist=Steel Forge
Album=As Nightmares Descend
Tracknumber=7/9
Year=2021



Register


Go to the top of the page
  Insert nick Quick quote
+Quote Post
 
Start new topic
Replies (1 - 2)
post Nov 3 2021, 12:46:40
Post #2

Ъ
**************
Group: Металариец
Posts: 11,110
Releases: 9
On Forums: 13 years 10 months
Thanks: 2237 time(s)
Sweden


Гаражное УГ.


Thanks:
(1) Andrew,
Go to the top of the page
  Insert nick Quick quote
+Quote Post
post Nov 3 2021, 21:17:01
Post #3

MDM-Thrash Metal
**************
Group: Металариец
Posts: 11,482
Releases: 1602
From: Одесса
On Forums: 15 years 3 months
Thanks: 37793 time(s)
Ukraine


Хренотень-мутотень!!!

ЦИТАТА(Samaritianin @ Oct 30 2021, 19:52:03) *
*Genre: Melodic Death Metal

А это вообще бред!
Go to the top of the page
  Insert nick Quick quote
+Quote Post

Reply to this topicStart new topic
2 User(s) are reading this topic (2 Guests and 0 Anonymous Users)
0 Members:

 



- Lo-Fi Version Support form
Copyrights and abuse reports form
Time is now: 3rd December 2022 - 17:26:56