Welcome Guest ( Log In | Register )

> Releases Upload / Добавление релизов

Добавить релиз тут / Click here to add release
Рекомендованные обменники / Recommended file shares

> Nigredo - Grimoire Timeless Death (2021), Black Metal
post Oct 31 2021, 01:06:28
Post #1

 
Group Icon
Group: V.I.P
Posts: 1,998
Releases: 162
On Forums: 15 years 2 months
Thanks: 17176 time(s)
Unknown


(IMG:http://metalarea.org/images/audiocovers/2021_Oct/acov_tid357533_thumb.jpg)

*Artist: Nigredo
*Album: Grimoire Timeless Death
*Year: 2021
*Genre: Black Metal
*Country: Chile (IMG:http://metalarea.org/forum/style_images/flags/Chile.png)
*Format: mp3@CBR320kbps
*Size: 110MB

Tracklist:
1. Called from the Shadows 03:10
2. Vinnum Sabbati 06:05
3. 13th Gate of the Void 05:11
4. Into the Darkness 07:46
5. Solved et Coagvla 06:26
6. Requiem 03:22
7. Triumph of the Black Sea 06:46
8. October Fallen 07:57
******************************
Total playing time: 46:43



Extended info
Schattenkult Produktionen, Apr 25, 2021.
CD is Limited to 300 Copies.
Personal purchase.

Отличный блек. Один из лучших в этом году.


Technical info
(IMG:http://metalarea.org/images/spectrogram/2021_Oct/5b3d5db3459ea72a3b34ef15cb119644.png)
Input File: 02 Vinnum Sabbati.mp3
Channels : 2
Sample Rate : 44100
Precision : 16-bit
Duration : 00:06:05.68 = 16126576 samples = 27426.1 CDDA sectors
File Size : 14.7M
Bit Rate : 323k
Sample Encoding: MPEG audio (layer I, II or III)
Comments :
Title=Vinnum Sabbati
Artist=Nigredo
Album=Grimoire Timeless Death
Tracknumber=2
Year=2021
Genre=Black Metal



Register


Register


Go to the top of the page
  Insert nick Quick quote
+Quote Post
 
Start new topic
Replies (1 - 7)
post Oct 31 2021, 09:03:47
Post #2

 
Group Icon
Group: V.I.P
Posts: 1,998
Releases: 162
On Forums: 15 years 2 months
Thanks: 17176 time(s)
Unknown


Добавил FLAC.


Go to the top of the page
  Insert nick Quick quote
+Quote Post
post Nov 25 2021, 09:02:19
Post #3

A Forgotten Dream
**************
Group: Металариец
Posts: 6,810
Releases: 8
On Forums: 12 years 2 weeks
Thanks: 3229 time(s)
Unknown


Неистовый режущий мрак. (IMG:style_emoticons/default/true_black.gif)
Go to the top of the page
  Insert nick Quick quote
+Quote Post
post Nov 25 2021, 10:55:57
Post #4

буква ю
**************
Group: Металариец
Posts: 5,267
Releases: 0
On Forums: 5 years 9 months
Thanks: 3401 time(s)
Unknown


незапоминающийся, как и большая часть чилийского блэк метала.
Go to the top of the page
  Insert nick Quick quote
+Quote Post
post Nov 25 2021, 12:15:49
Post #5

**************
Group: Металариец
Posts: 2,788
Releases: 14
From: Казань
On Forums: 12 years 2 months
Thanks: 3878 time(s)
Russian Federation


ЦИТАТА(ent404 @ Nov 25 2021, 12:55:57) *
незапоминающийся, как и большая часть чилийского блэк метала.


Конечно, это же не девственно чистая Норвегия 93-го, где под елями слагают Гимны, а гитарные риффы идут в презентации к новогодним открыткам


Thanks:
Go to the top of the page
  Insert nick Quick quote
+Quote Post
post Nov 25 2021, 13:29:22
Post #6

буква ю
**************
Group: Металариец
Posts: 5,267
Releases: 0
On Forums: 5 years 9 months
Thanks: 3401 time(s)
Unknown


ЦИТАТА(sethurius @ 25th November 2021 - 16:15:49) *
Конечно, это же не девственно чистая Норвегия 93-го, где под елями слагают Гимны, а гитарные риффы идут в презентации к новогодним открыткам

не был - не в курсе)


Thanks:
(1) Occultas,
Go to the top of the page
  Insert nick Quick quote
+Quote Post
post Nov 26 2021, 10:01:54
Post #7

добрый мизантроп
**************
Group: Металариец
Posts: 2,600
Releases: 1
From: Менск
On Forums: 11 years 2 weeks
Thanks: 1134 time(s)
Madagascar


Well made standart black (IMG:style_emoticons/default/true_black.gif) (IMG:style_emoticons/default/true_black.gif)
Go to the top of the page
  Insert nick Quick quote
+Quote Post
post Nov 27 2021, 09:56:03
Post #8

melofags sniper
**************
Group: Металариец
Posts: 6,507
Releases: 0
On Forums: 13 years 8 months
Thanks: 7343 time(s)
Sudan


Nothing remains. Mediocre.


Thanks:
(1) Occultas,
Go to the top of the page
  Insert nick Quick quote
+Quote Post

Reply to this topicStart new topic
2 User(s) are reading this topic (2 Guests and 0 Anonymous Users)
0 Members:

 



- Lo-Fi Version Support form
Copyrights and abuse reports form
Time is now: 29th November 2021 - 07:15:40