Welcome Guest ( Log In | Register )

> Releases Upload / Добавление релизов

Добавить релиз тут / Click here to add release
Рекомендованные обменники / Recommended file shares

> Death Has Spoken - Call Of The Abyss (2021), Doom/Death Metal
post Oct 31 2021, 15:48:10
Post #1

Правь статус, ####!111
**************
Group: Металариец
Posts: 28,169
Releases: 20552
From: Г.Харьков
On Forums: 9 years 6 months
Thanks: 418584 time(s)
Unknown


(IMG:https://metalarea.org/images/audiocovers/2021_Oct/acov_tid357579_thumb.jpg)

*Artist: Death Has Spoken
*Album: Call Of The Abyss
*Year: 2021
*Genre: Doom/Death Metal
*Country: Poland (IMG:https://metalarea.org/forum/style_images/flags/Poland.png)
*Format: mp3@CBR320kbps
*Size: 98MB

Tracklist:
1. Call of the Abyss 06:54
2. Lurking Fear 05:42
3. Woe 07:01
4. Wilderness 03:31 instrumental
5. Crawling to the Tomb 07:27
6. In Vain 06:22
7. Under the Flame 06:09
******************************
Total playing time: 43:06




Extended info
Mikołaj Kupczyński Drums
Maciej Chodynicki Bass
Marcin Grygoruk Guitars (lead)
Karol Pogorzelski Vocals, Guitars (rhythm)


Technical info
(IMG:https://metalarea.org/images/spectrogram/2021_Oct/730426e4dcb25832613c892abcc84c28.png)
Input File: 07 - Under the Flame.mp3
Channels : 2
Sample Rate : 44100
Precision : 16-bit
Duration : 00:06:08.14 = 16234842 samples = 27610.3 CDDA sectors
File Size : 14.8M
Bit Rate : 321k
Sample Encoding: MPEG audio (layer I, II or III)
Comments :
Title=Under the Flame
Artist=Death Has Spoken
Album=Call of the Abyss
Tracknumber=7/7
Year=2021



Register


Go to the top of the page
  Insert nick Quick quote
+Quote Post
 
Start new topic
Replies (1 - 4)
post Oct 31 2021, 22:30:41
Post #2

Четыре Литра
****
Group: Металариец
Posts: 366
Releases: 0
On Forums: 3 years 10 months
Thanks: 143 time(s)
Belarus


Судя по превью, это какое-то жизнерадостное смешение несовместимых стилей, да еще и с детской лирикой.
Go to the top of the page
  Insert nick Quick quote
+Quote Post
post Oct 31 2021, 23:01:01
Post #3

Ледоруб
**************
Group: Металариец
Posts: 29,352
Releases: 0
From: Санкт-Петербург
On Forums: 12 years 2 months
Thanks: 10526 time(s)
Russian Federation


ЦИТАТА(GRAF @ 1st November 2021 - 00:30:41) *
да еще и с детской лирикой.

Тебе должно было понравиться.
Go to the top of the page
  Insert nick Quick quote
+Quote Post
post Nov 14 2021, 14:31:49
Post #4

Old School Metal
**************
Group: Металариец
Posts: 4,110
Releases: 0
From: г. Минск
On Forums: 12 years 8 months
Thanks: 9992 time(s)
Belarus


Lossless: FLAC (tracks)
Register


Thanks:
(2) isvili, wreak,
Go to the top of the page
  Insert nick Quick quote
+Quote Post
post Nov 17 2021, 15:41:35
Post #5

...
**************
Group: Металариец
Posts: 5,054
Releases: 512
From: МОРсквы
On Forums: 15 years 1 month
Thanks: 7682 time(s)
Russian Federation


ЦИТАТА(GRAF @ 1st November 2021 - 00:30:41) *
Судя по превью, это какое-то жизнерадостное смешение несовместимых стилей, да еще и с детской лирикой

"детскую" лирику по клипу не понял (хотя почти всю металическую лирику таковой считаю), обычный меланхоличный пост-дум. неплохой.
Go to the top of the page
  Insert nick Quick quote
+Quote Post

Reply to this topicStart new topic
1 User(s) are reading this topic (1 Guests and 0 Anonymous Users)
0 Members:

 



- Lo-Fi Version Support form
Copyrights and abuse reports form
Time is now: 3rd December 2021 - 04:37:17