Welcome Guest ( Log In | Register )

> Mystigma - Gebete (2021), Gothic Rock/Gothic Metal
post Nov 3 2021, 10:03:29
Post #1

Девять Литров
*********
Group: Металариец
Posts: 991
Releases: 259
On Forums: 3 years 6 months
Thanks: 4356 time(s)
Russian Federation


(IMG:https://metalarea.org/images/audiocovers/2021_Nov/acov_tid357689_thumb.jpg)

*Artist: Mystigma
*Album: Gebete
*Year: 2021
*Genre: Gothic Rock/Gothic Metal
*Country: Germany (IMG:https://metalarea.org/forum/style_images/flags/Germany.png)
*Format: mp3@CBR320kbps
*Size: 130MB

Tracklist:
01. Schockraum 5:19
02. Wie ein Gebet 4:27
03. Wenn Gewalt die Stille bricht 4:10
04. Lebenslanglich 4:31
05. Erlosung 4:10
06. Prophet 4:26
07. Testament 4:10
08. Herzakkord 3:53
09. Unter die Haut 4:44
10. Morpheus 4:42
11. Dornenmensch 4:12
12. Charon 4:17
13. Sacrificed 4:14
******************************
Total playing time: 57:15

Preview 1
(IMG:https://metalarea.org/images/youtube.png)

Extended info


Technical info
(IMG:https://metalarea.org/images/spectrogram/2021_Nov/cb1c826b2291195702f44cffa1dd0299.png)
Input File: 03 - Wenn Gewalt die Stille bricht.mp3
Channels : 2
Sample Rate : 44100
Precision : 16-bit
Duration : 00:04:10.51 = 11047271 samples = 18787.9 CDDA sectors
File Size : 10.0M
Bit Rate : 320k
Sample Encoding: MPEG audio (layer I, II or III)
Comments :
Title=Wenn Gewalt die Stille bricht
Artist=Mystigma
Album=Gebete
Tracknumber=3
Year=2021
Genre=Gothic Rock / Gothic Metal



Register


Go to the top of the page
  Insert nick Quick quote
+Quote Post
 
Start new topic
Replies (1 - 1)
post Nov 14 2021, 04:18:52
Post #2

Ъ
**************
Group: Металариец
Posts: 11,110
Releases: 9
On Forums: 13 years 10 months
Thanks: 2237 time(s)
Sweden



Третьесорт.


Thanks:
(1) Sanctus,
Go to the top of the page
  Insert nick Quick quote
+Quote Post

Reply to this topicStart new topic
2 User(s) are reading this topic (2 Guests and 0 Anonymous Users)
0 Members:

 



- Lo-Fi Version Support form
Copyrights and abuse reports form
Time is now: 3rd December 2022 - 16:26:01