Welcome Guest ( Log In | Register )

> Releases Upload / Добавление релизов

Добавить релиз тут / Click here to add release
Рекомендованные обменники / Recommended file shares

> Deceased - Thrash Times At Ridgemont High (2021), Thrash Metal
post Nov 3 2021, 16:46:32
Post #1

Правь статус, ####!111
**************
Group: Металариец
Posts: 28,136
Releases: 20530
From: Г.Харьков
On Forums: 9 years 6 months
Thanks: 417913 time(s)
Unknown


(IMG:https://metalarea.org/images/audiocovers/2021_Nov/acov_tid357702_thumb.jpg)

*Artist: Deceased
*Album: Thrash Times At Ridgemont High
*Year: 2021
*Genre: Thrash Metal
*Country: United States (IMG:https://metalarea.org/forum/style_images/flags/United%20States.png)
*Format: mp3@CBR320kbps
*Size: 103MB

Tracklist:
1. Spit on Your Grave (Whiplash cover) 02:46
2. Pray for Death (Blessed Death cover) 02:48
3. Sacrifice (Sacrifice cover) 03:09
4. Get Stoned (Stone cover) 04:19
5. Into the Universe (Artillery cover) 03:43
6. Take This Torch (Razor cover) 03:19
7. Thrashing Rage (Voivod cover) 04:32
8. Death Squad (Darkness cover) 02:59
9. In the Grip of Evil (Cyclone cover) 04:45
10. Demons (Rigor Mortis cover) 04:05
11. Demon Preacher (Deathwish cover) 05:21
12. Ilona (The Very Best) (Bulldozer cover) 02:48
******************************
Total playing time: 44:34




Extended info
New covers collection from DECEASED
Kingsley "King" Fowley Bass (1985-1986), Drums (1985-2005, 2010-present), Vocals (1985-present)
See also: October 31, ex-Doomstone, ex-Abominog
Les Snyder Bass (1988-present)
See also: ex-Abominog, ex-Doomstone
Mike Smith Guitars (1990-present)
See also: ex-Recalcitrance
Shane Fuegel Guitars (2006-present)
See also: ex-Biovore, ex-Bionic Man, ex-Drugs of Faith
Amos Rifkin Drums (2019-present)
See also: Encoffination, Father Befouled, Spewtilator, ex-Death of Kings


Technical info
(IMG:https://metalarea.org/images/spectrogram/2021_Nov/dd00b869b72119c65e8e81e89bc5ba9d.png)
Input File: DECEASED - Thrash Times at Ridgemont High - 09 In the Grip of Evil (Cyclone).mp3
Channels : 2
Sample Rate : 44100
Precision : 16-bit
Duration : 00:04:45.75 = 12601399 samples = 21431 CDDA sectors
File Size : 11.5M
Bit Rate : 323k
Sample Encoding: MPEG audio (layer I, II or III)
Comments :
Title=In the Grip of Evil (Cyclone)
Artist=DECEASED
Album=Thrash Times at Ridgemont High
Tracknumber=9
Year=2021



Register


Go to the top of the page
  Insert nick Quick quote
+Quote Post
 
Start new topic
Replies (1 - 3)
post Nov 5 2021, 00:30:34
Post #2

Два Литра
**
Group: Завсегдатай
Posts: 102
Releases: 0
On Forums: 14 years 3 months
Thanks: 50 time(s)
China


Wooow! That was unexpected! Absolute killer cover album, total thrash hymns!


Thanks:
(1) DarkHorde,
Go to the top of the page
  Insert nick Quick quote
+Quote Post
post Nov 5 2021, 17:02:30
Post #3

Common dweller of hell
**************
Group: Металариец
Posts: 4,110
Releases: 12
From: Dnipro
On Forums: 13 years 4 months
Thanks: 1609 time(s)
Ukraine


Стариканы кавера стариканов запилили (IMG:style_emoticons/default/17.gif)


Thanks:
(1) DarkHorde,
Go to the top of the page
  Insert nick Quick quote
+Quote Post
post Nov 25 2021, 10:07:05
Post #4

0%Tolerance
**********
Group: Металариец
Posts: 1,477
Releases: 0
On Forums: 9 years 2 months
Thanks: 280 time(s)
Unknown


Олдх скулх трэшх митал. Можно послушать разок-другой интереса ради.
Go to the top of the page
  Insert nick Quick quote
+Quote Post

Reply to this topicStart new topic
2 User(s) are reading this topic (2 Guests and 0 Anonymous Users)
0 Members:

 



- Lo-Fi Version Support form
Copyrights and abuse reports form
Time is now: 29th November 2021 - 06:29:05