Welcome Guest ( Log In | Register )

> Gold Spire - Gold Spire (2021), Avantgarde Doom/Death Metal
post Nov 4 2021, 18:07:23
Post #1

Правь статус, ####!111
**************
Group: Металариец
Posts: 30,923
Releases: 22794
From: Г.Харьков
On Forums: 10 years 6 months
Thanks: 477009 time(s)
Unknown


(IMG:https://metalarea.org/images/audiocovers/2021_Nov/acov_tid357781_thumb.jpg)

*Artist: Gold Spire
*Album: Gold Spire
*Year: 2021
*Genre: Avantgarde Doom/Death Metal
*Country: Sweden (IMG:https://metalarea.org/forum/style_images/flags/Sweden.png)
*Format: mp3@CBR320kbps
*Size: 91MB

Tracklist:
1. Day Dawns Dark
2. Headless Snake
3. The Old Bridge
4. Gloria
5. Husk of God
6. Skull Choirs
7. Fetid Waters
8. The Wayfinder
******************************
Total playing time: 39:16




Extended info
Heval Bozarslan – vocals
Erik Sundström – drums/keyboards
Påhl Sundström – guitars
Magnus Kjellstrand – saxophone/flute
Petter Broman – bass


Technical info
(IMG:https://metalarea.org/images/spectrogram/2021_Nov/fba1b6868aed67bba025b85f60d17f66.png)
Input File: 07 - Fetid Waters.mp3
Channels : 2
Sample Rate : 44100
Precision : 16-bit
Duration : 00:06:08.06 = 16231534 samples = 27604.6 CDDA sectors
File Size : 14.9M
Bit Rate : 324k
Sample Encoding: MPEG audio (layer I, II or III)
Comments :
Title=Fetid Waters
Artist=Gold Spire
Album=Gold Spire
Tracknumber=7
Year=2021



Register


Go to the top of the page
  Insert nick Quick quote
+Quote Post
 
Start new topic
Replies (1 - 6)
post Nov 7 2021, 02:31:19
Post #2

FOLK METAL FEVER
**************
Group: Металариец
Posts: 2,339
Releases: 6
From: Kyiv
On Forums: 15 years 4 weeks
Thanks: 317 time(s)
Ukraine


jazz doom
Go to the top of the page
  Insert nick Quick quote
+Quote Post
post Feb 5 2022, 17:20:36
Post #3

Шесть Литров
******
Group: Металариец
Posts: 689
Releases: 0
On Forums: 3 years 6 months
Thanks: 327 time(s)
Ukraine


Пожалуй, лучшее из дума, что довелось послушать из релизов 2021 года.
Атмосфера нуар фильмов, лидирующий саксофон.
Go to the top of the page
  Insert nick Quick quote
+Quote Post
post Jul 25 2022, 20:31:26
Post #4

Литр
*
Group: Подсевший
Posts: 51
Releases: 0
On Forums: 2 years 5 months
Thanks: 4 time(s)
Ireland


Can someone re-up this. Thanks. :
Go to the top of the page
  Insert nick Quick quote
+Quote Post
post Jul 26 2022, 22:48:44
Post #5

Мегаманьяк
***********
Group: Металариец
Posts: 1,579
Releases: 0
On Forums: 13 years 9 months
Thanks: 618 time(s)
South Korea


QUOTE(Azumin1234 @ Jul 25 2022, 22:31:26) *
Can someone re-up this. Thanks. :


1. 320 kbps from the neighborhood on the web:
Register

Register

Thanks to getmetal!

2. Each track previewable or downloadable at 320 kbps for free (or purchase) if you want to preview or miss some tracks:
Register


[All credits go to the band and the original posters].


Thanks:
Go to the top of the page
  Insert nick Quick quote
+Quote Post
post Jul 27 2022, 02:51:29
Post #6

Кожаный ублюдок
**************
Group: Металариец
Posts: 3,503
Releases: 6
From: Алчевск (early) Некросибирск (now)
On Forums: 13 years 7 months
Thanks: 2469 time(s)
Russian Federation


А есть какие-нибудь нормальные обменники, а не эта лабуда?

Нашел вот

Register


Go to the top of the page
  Insert nick Quick quote
+Quote Post
post Jul 27 2022, 08:21:47
Post #7
BAN
RO till
Dec 7 2022, 19:26:25



Перебор с саксофоном. ЛУбителям джаза зайдёт. Он здесь на передке. В общем - душно по итогу, но на протяжении прослушивания идёт всё же не без интереса за счёт диссонансов и непредсказуемости (впрочем я их просчитал быстро, а кто-то возможно и нет).


Thanks:
Go to the top of the page
  Insert nick Quick quote
+Quote Post

Reply to this topicStart new topic
2 User(s) are reading this topic (2 Guests and 0 Anonymous Users)
0 Members:

 



- Lo-Fi Version Support form
Copyrights and abuse reports form
Time is now: 3rd December 2022 - 16:29:48