Welcome Guest ( Log In | Register )

> Правила / Rules

Тут только для чтения лежат низкобитрейтные (<192kbps) релизы, для которых есть аналоги в высокобитрейтных форумах.

Here goes (and stand in read only mode) low bitrate releases (<192kbps) which were already replaced by high bitrate releases in corresponding forums.

> Cân Bardd - Nature Stays Silent (2018), Epic/Atmospheric Folk/Black Metal
post Nov 7 2021, 21:10:50
Post #1

KPN 666
**************
Group: Металариец
Posts: 2,794
Releases: 1378
From: Тегеран
On Forums: 13 years 3 months
Thanks: 19925 time(s)
Iran


(IMG:http://metalarea.org/images/audiocovers/2021_Nov/acov_tid357966_thumb.jpg)

*Artist: Cân Bardd
*Album: Nature Stays Silent
*Year: 2018
*Genre: Epic/Atmospheric Folk/Black Metal
*Country: Switzerland (IMG:http://metalarea.org/forum/style_images/flags/Switzerland.png)
*Format: mp3@CBR320kbps
*Size: 164MB

Tracklist:
01. Introduction
02. My Ancestors
03. An Evolving Painting
04. Méditation glaciale
05. Underwater
06. Océan
07. Abîme
08. A Gift for Nature
******************************
Total playing time: 1:10:52



Technical info
(IMG:http://metalarea.org/images/spectrogram/2021_Nov/7e7dbcc99fd60ec89080abc3c4109b1c.png)
Input File: 02. My Ancestors.mp3
Channels : 2
Sample Rate : 44100
Precision : 16-bit
Duration : 00:00:00.43 = 18875 samples = 32.1003 CDDA sectors
File Size : 17.4M
Bit Rate : 326M
Sample Encoding: MPEG audio (layer I, II or III)
Comments :
Title=My Ancestors
Artist=Cân Bardd
Album=Nature Stays Silent
Tracknumber=2/8
Year=2018
Genre=Epic/Atmospheric Folk/Black Metal
Discnumber=1/1



Register


Go to the top of the page
  Insert nick Quick quote
+Quote Post
 
Start new topic
Replies (1 - 1)
post Nov 8 2021, 06:37:05
Post #2

к приему виски готов
*********
Group: Металариец
Posts: 914
Releases: 3
From: Украина
On Forums: 13 years 7 months
Thanks: 542 time(s)
Ukraine


вроде-ж есть уже такая тема: Cân Bardd - Nature Stays Silent (2018)


Thanks:
Go to the top of the page
  Insert nick Quick quote
+Quote Post

Причина закрытия (DarkHorde 09-11-2021): Cân Bardd - Nature Stays Silent (2018)
Closed TopicStart new topic
2 User(s) are reading this topic (2 Guests and 0 Anonymous Users)
0 Members:

 



- Lo-Fi Version Support form
Copyrights and abuse reports form
Time is now: 3rd October 2022 - 09:19:19