Welcome Guest ( Log In | Register )

> И неформату есть предел.

Рэп/хип-хоп/шансон/поп удаляются. Для них есть свои порталы.

> Jethro Tull - Shoshana Sleeping [single] (2021), Progressive Rock (D23)
post Nov 8 2021, 11:15:29
Post #1

Правь статус, ####!111
**************
Group: Металариец
Posts: 49,519
Releases: 891
On Forums: 12 years 5 months
Thanks: 45509 time(s)
Russian Federation


(IMG:https://metalarea.org/images/audiocovers/2021_Nov/acov_tid357980_thumb.jpg)

*Artist: Jethro Tull
*Album: Shoshana Sleeping [single]
*Year: 2021
*Genre: Progressive Rock
*Country: United Kingdom (IMG:https://metalarea.org/forum/style_images/flags/United%20Kingdom.png)
*Format: mp3@CBR320kbps
*Size: 8MB

Tracklist:
1. Shoshana Sleeping 3:41
******************************
Total playing time: 3:41

(IMG:https://metalarea.org/images/youtube.png)

Technical info
(IMG:https://metalarea.org/images/spectrogram/2021_Nov/10005630e7951eb5ec5ae8651ba0c335.png)
Input File: 01.Shoshana Sleeping.mp3
Channels : 2
Sample Rate : 44100
Precision : 16-bit
Duration : 00:03:40.64 = 9730312 samples = 16548.1 CDDA sectors
File Size : 9.11M
Bit Rate : 330k
Sample Encoding: MPEG audio (layer I, II or III)
Comments :
Title=Shoshana Sleeping
Artist=Jethro Tull
Album=Single
Tracknumber=1/1
Year=2021
Genre=Progressive Rock, Classic Rock
Discnumber=1/1



Register


Go to the top of the page
  Insert nick Quick quote
+Quote Post
 
Start new topic
Replies (1 - 3)
post Nov 9 2021, 06:54:47
Post #2

Мегаманьяк
***********
Group: Металариец
Posts: 1,705
Releases: 0
From: Мелитополь
On Forums: 13 years 10 months
Thanks: 1258 time(s)
Ukraine


Шошана это кто?
Go to the top of the page
  Insert nick Quick quote
+Quote Post
post Nov 9 2021, 08:09:11
Post #3

~ressentiment~
***********
Group: Металариец
Posts: 1,586
Releases: 54
On Forums: 10 years 8 months
Thanks: 2011 time(s)
Russian Federation


о, он еще жив.
акваланг, май френд был неплох.
Go to the top of the page
  Insert nick Quick quote
+Quote Post
post Nov 25 2021, 21:50:21
Post #4

Правь статус, ####!111
**************
Group: Металариец
Posts: 49,519
Releases: 891
On Forums: 12 years 5 months
Thanks: 45509 time(s)
Russian Federation


Очень хороший трэк, с нетерпением жду январский альбом (IMG:style_emoticons/default/pray.gif)
Go to the top of the page
  Insert nick Quick quote
+Quote Post

Reply to this topicStart new topic
2 User(s) are reading this topic (2 Guests and 0 Anonymous Users)
0 Members:

 



- Lo-Fi Version Support form
Copyrights and abuse reports form
Time is now: 27th November 2021 - 01:25:55