Welcome Guest ( Log In | Register )

> Thulcandra - Perishness Around Us [ep] (2016), Melodic Black/Death Metal (D6)
post Nov 8 2021, 15:02:18
Post #1

неделимое
**********
Group: Металариец
Posts: 1,355
Releases: 125
On Forums: 10 years 3 months
Thanks: 2635 time(s)
Russian Federation


(IMG:http://metalarea.org/images/audiocovers/2021_Nov/acov_tid357986_thumb.jpg)

*Artist: Thulcandra
*Album: Perishness Around Us [ep]
*Year: 2016
*Genre: Melodic Black/Death Metal
*Country: Germany (IMG:http://metalarea.org/forum/style_images/flags/Germany.png)
*Format: mp3@CBR320kbps
*Size: 34MB

Tracklist:
1. Perishness Around Us 05:13
2. Frozen Kingdom 03:45
3. Dreaming 02:10
4. Immortality 03:54
******************************
Total playing time: 15:02

(IMG:http://metalarea.org/images/youtube.png)

Technical info
(IMG:http://metalarea.org/images/spectrogram/2021_Nov/629a2fc905ab34d81820a26f8207161f.png)
Input File: 02 - Frozen Kingdom.mp3
Channels : 2
Sample Rate : 44100
Precision : 16-bit
Duration : 00:03:45.95 = 9964175 samples = 16945.9 CDDA sectors
File Size : 9.04M
Bit Rate : 320k
Sample Encoding: MPEG audio (layer I, II or III)



Register


Go to the top of the page
  Insert nick Quick quote
+Quote Post
 
Start new topic
Replies (1 - 2)
post Dec 1 2021, 10:18:16
Post #2

добрый мизантроп
**************
Group: Металариец
Posts: 2,792
Releases: 1
From: Менск
On Forums: 11 years 2 months
Thanks: 1225 time(s)
Madagascar


Great One (IMG:style_emoticons/default/t2017.gif)


Thanks:
(1) Occultas,
Go to the top of the page
  Insert nick Quick quote
+Quote Post
post Dec 1 2021, 11:05:47
Post #3

Три Литра
***
Group: Завсегдатай
Posts: 231
Releases: 0
From: Zürich
On Forums: 7 months 2 weeks
Thanks: 118 time(s)
Switzerland


Многие писали, что они в начале хороши были - но вот что-то я не особо этого заметил.
Даже с олдскульным звуком материал их так же скучно звучит, как и на последующих полноформатах.
Go to the top of the page
  Insert nick Quick quote
+Quote Post

Reply to this topicStart new topic
1 User(s) are reading this topic (1 Guests and 0 Anonymous Users)
0 Members:

 



- Lo-Fi Version Support form
Copyrights and abuse reports form
Time is now: 29th January 2022 - 00:14:53