Welcome Guest ( Log In | Register )

> Basarabian Hills - The Path Of Hope (2021), Atmospheric Black Metal/Ambient/Instrumental (D8)
post Nov 10 2021, 19:59:30
Post #1

Правь статус, ####!111
**************
Group: Металариец
Posts: 29,216
Releases: 21439
From: Г.Харьков
On Forums: 10 years 1 week
Thanks: 442702 time(s)
Unknown


(IMG:https://metalarea.org/images/audiocovers/2021_Nov/acov_tid358075_thumb.jpg)

*Artist: Basarabian Hills
*Album: The Path Of Hope
*Year: 2021
*Genre: Atmospheric Black Metal/Ambient/Instrumental
*Country: Moldova (IMG:https://metalarea.org/forum/style_images/flags/Moldova.png)
*Format: mp3@CBR320kbps
*Size: 79MB

Tracklist:
1. The Path Of Hope 08:01
2. Stuck In Desolation 08:33
3. From The Depth Of Another Realm 09:01
4. Into The Unending Darkness 09:23
******************************
Total playing time: 34:58


Preview 2

Technical info
(IMG:https://metalarea.org/images/spectrogram/2021_Nov/60d30a8ca4ca53842f7c9dda7a34588b.png)
Input File: 02 - Stuck In Desolation.mp3
Channels : 2
Sample Rate : 44100
Precision : 16-bit
Duration : 00:08:33.57 = 22648349 samples = 38517.6 CDDA sectors
File Size : 20.5M
Bit Rate : 320k
Sample Encoding: MPEG audio (layer I, II or III)
Comments :
Title=Stuck In Desolation
Artist=Basarabian Hills
Album=The Path of Hope
Tracknumber=2
Year=2021
Genre=Metal



Register


Go to the top of the page
  Insert nick Quick quote
+Quote Post
 
Start new topic
Replies (1 - 9)
post Nov 10 2021, 22:51:45
Post #2

Наливай!
**************
Group: Металариец
Posts: 6,138
Releases: 27
From: Москва-Бибирево
On Forums: 14 years 2 months
Thanks: 3185 time(s)
Russian Federation


А вот это кошерный Молдавашка. Альбом 18го года постоянно слушаю где нибудь в дороге. И обложку оформил хоть нормально, а то на прошлом какая-то зеленая лепёшка была.
Go to the top of the page
  Insert nick Quick quote
+Quote Post
post Nov 11 2021, 07:46:13
Post #3

Четыре Литра
****
Group: Металариец
Posts: 365
Releases: 3
From: минск сити
On Forums: 12 years 10 months
Thanks: 312 time(s)
Belarus


хм... люстра без гитар. Генератор нот ксилофона с клавишной подложкой. Я бы эту убогость в неформат определил.


Thanks:
(2) Kwaad, Nemez,
Go to the top of the page
  Insert nick Quick quote
+Quote Post
post Nov 11 2021, 09:32:01
Post #4

Три Литра
***
Group: Завсегдатай
Posts: 281
Releases: 0
On Forums: 4 years 3 months
Thanks: 89 time(s)
Saint Helena


ЦИТАТА(дивин @ Nov 11 2021, 07:46:13) *
хм... люстра без гитар. Генератор нот ксилофона с клавишной подложкой. Я бы эту убогость в неформат определил.

Хватит токсичить тут. Годное


Thanks:
(1) SAPOGi,
Go to the top of the page
  Insert nick Quick quote
+Quote Post
post Nov 11 2021, 09:52:59
Post #5

Правь статус, ####!111
**************
Group: Металариец
Posts: 2,796
Releases: 12
On Forums: 14 years 9 months
Thanks: 1610 time(s)
Russian Federation


Мне очень понравилось. Приятный стафф.


Thanks:
Go to the top of the page
  Insert nick Quick quote
+Quote Post
post Nov 11 2021, 12:25:23
Post #6

Четыре Литра
****
Group: Металариец
Posts: 314
Releases: 0
From: Калуга
On Forums: 4 years 3 months
Thanks: 103 time(s)
Russian Federation


а что здесь осталось от Atmospheric Black Metal?
Go to the top of the page
  Insert nick Quick quote
+Quote Post
post Nov 11 2021, 12:26:05
Post #7

Правь статус, ####!111
**************
Group: Металариец
Posts: 50,593
Releases: 931
On Forums: 12 years 11 months
Thanks: 47330 time(s)
Russian Federation


ЦИТАТА(rominow @ Nov 11 2021, 14:25:23) *
а что здесь осталось от Atmospheric Black Metal?


Логотип (IMG:style_emoticons/default/1488.gif)
Go to the top of the page
  Insert nick Quick quote
+Quote Post
post Nov 11 2021, 18:18:30
Post #8

Маньяк
**********
Group: Металариец
Posts: 1,455
Releases: 3
From: Новороссия
On Forums: 16 years 3 months
Thanks: 794 time(s)
Russian Federation


Да нет здесь black'a зачем вводить людей в заблуждение.


Thanks:
Go to the top of the page
  Insert nick Quick quote
+Quote Post
post Nov 12 2021, 17:47:45
Post #9
BAN
Banned till
May 22 2022, 16:00:54



Приятная и незамысловатая фоновая музыка (IMG:style_emoticons/default/20.gif)


Thanks:
(1) Occultas,
Go to the top of the page
  Insert nick Quick quote
+Quote Post
post Nov 29 2021, 16:34:45
Post #10

добрый мизантроп
**************
Group: Металариец
Posts: 2,943
Releases: 1
From: Менск
On Forums: 11 years 6 months
Thanks: 1306 time(s)
Madagascar


Good quality, but its not ABM (and not metal), at least as main genre
Go to the top of the page
  Insert nick Quick quote
+Quote Post

Reply to this topicStart new topic
2 User(s) are reading this topic (2 Guests and 0 Anonymous Users)
0 Members:

 



- Lo-Fi Version Support form
Copyrights and abuse reports form
Time is now: 18th May 2022 - 14:43:31