Welcome Guest ( Log In | Register )

> Disembowelment - Dusk & Deep Sensory Procession Into Aural Fate [compilation] (2020), Doom/Death Metal (D)
post Nov 14 2021, 11:38:40
Post #1

Правь статус, ####!111
**************
Group: Металариец
Posts: 2,640
Releases: 1209
On Forums: 11 years 6 months
Thanks: 23901 time(s)
Russian Federation


(IMG:https://metalarea.org/images/audiocovers/2021_Nov/acov_tid358228_thumb.jpg)

*Artist: Disembowelment
*Album: Dusk & Deep Sensory Procession Into Aural Fate [compilation]
*Year: 2020
*Genre: Doom/Death Metal
*Country: Australia (IMG:https://metalarea.org/forum/style_images/flags/Australia.png)
*Format: mp3@CBR320kbps
*Size: 125MB

Tracklist:
1.The Tree Of Life And Death 09:21
2.A Burial At Ornans 12:03
3.Cerulean Transience Of All My Imagined Shores 08:29
4.River of Salvation a. My Divine Punishment 03:30
5.The Tree of Life and Death 08:42
6.Burial at Ornans 12:32
7.As Your Soul Befalls 00:41
******************************
Total playing time: 55:18



Technical info
(IMG:https://metalarea.org/images/spectrogram/2021_Nov/c4a3b01d319944dcd5c87fafa086b476.png)
Input File: 04.River of Salvation a. My Divine Punishment.mp3
Channels : 2
Sample Rate : 48000
Precision : 16-bit
Duration : 00:03:29.64 = 10062720 samples ~ 15723 CDDA sectors
File Size : 8.39M
Bit Rate : 320k
Sample Encoding: MPEG audio (layer I, II or III)



Register


Go to the top of the page
  Insert nick Quick quote
+Quote Post
 
Start new topic
Replies (1 - 4)
post Nov 14 2021, 19:38:09
Post #2

Четыре Литра
****
Group: Металариец
Posts: 314
Releases: 0
From: Калуга
On Forums: 4 years 3 months
Thanks: 103 time(s)
Russian Federation




Go to the top of the page
  Insert nick Quick quote
+Quote Post
post Nov 14 2021, 19:56:21
Post #3

Пять Литров
*****
Group: Металариец
Posts: 457
Releases: 0
On Forums: 4 years 3 months
Thanks: 161 time(s)
Belarus


И вновь привет из подвала девяностых.


Thanks:
(1) Occultas,
Go to the top of the page
  Insert nick Quick quote
+Quote Post
post Nov 14 2021, 21:02:11
Post #4

hearer & reader
**************
Group: Металариец
Posts: 10,281
Releases: 211
From: Moscow
On Forums: 14 years 8 months
Thanks: 12389 time(s)
Russian Federation


И теги придумали дураки (IMG:style_emoticons/default/21.gif)
Go to the top of the page
  Insert nick Quick quote
+Quote Post
post Nov 14 2021, 22:37:20
Post #5

De Mysteriis Dom Sathanas
**************
Group: Металариец
Posts: 4,426
Releases: 64
From: Doom
On Forums: 13 years 10 months
Thanks: 3834 time(s)
Russian Federation


Transcendence into The Puripheral до сих пор в любимых!!!
Go to the top of the page
  Insert nick Quick quote
+Quote Post

Reply to this topicStart new topic
2 User(s) are reading this topic (2 Guests and 0 Anonymous Users)
0 Members:

 



- Lo-Fi Version Support form
Copyrights and abuse reports form
Time is now: 25th May 2022 - 04:27:29