Welcome Guest ( Log In | Register )

 
Reply to this topicStart new topic
> Common Enemy - Let's Have Fun! [7 Inch] [ep] (2006), Skate Thrash/Crossover/Hardcore/Punk
post Nov 15 2021, 09:55:28
Post #1

Мегаманьяк
***********
Group: Металариец
Posts: 1,575
Releases: 301
On Forums: 3 years 6 months
Thanks: 4598 time(s)
Canada


(IMG:https://metalarea.org/images/audiocovers/2021_Nov/acov_tid358257_thumb.jpg)

*Artist: Common Enemy
*Album: Let's Have Fun! [7 Inch] [ep]
*Year: 2006
*Genre: Skate Thrash/Crossover/Hardcore/Punk
*Country: United States (IMG:https://metalarea.org/forum/style_images/flags/United%20States.png)
*Format: mp3@CBR224kbps
*Size: 14MB

Tracklist:
1. I Give Up 01:08
2. Skate Of The Dead 00:59
3. Let's Have Fun 01:30
4. Truck To The Head 00:22
5. One Up 01:28
6. Park Scabs & Ramp Tramps 01:18
7. Dead Walking 01:10
******************************
Total playing time: 7:55

Extended info
vinyl rip by canadaspaceman

https://www.spirit-of-metal.com/en/band/Common_Enemy

https://www.spirit-of-metal.com/en/discography/Common_Enemy/1

Vocals [Sore Throat] – Sonic
Guitar, Backing Vocals – Justin Enemy
Bass, Backing Vocals – Greg Disorder
Drums [Beat Box] – Tank

Label: Sick Of Talk Records – SOT013

"Limited edition of 400 copies on black vinyl, hand numbered on label. limited edition colored vinyl versions and hand colored sleeves also available,stickers with most copies" (but no sticker with MY copy ! - cs)

https://www.discogs.com/release/3896677-Common-Enemy-Lets-Have-Fun


Technical info
(IMG:https://metalarea.org/images/spectrogram/2021_Nov/277b3d129fa9eb66bcdc80cd216cdb11.png)
Input File: B1 One Up.mp3
Channels : 2
Sample Rate : 44100
Precision : 16-bit
Duration : 00:01:28.07 = 3883711 samples = 6604.95 CDDA sectors
File Size : 2.63M
Bit Rate : 239k
Sample Encoding: MPEG audio (layer I, II or III)
Comments :
Artist=Common Enemy
Album=Let's Have Fun! [EP]
Year=2006
Genre=Skate Thrash/Crossover/Hardcore/Punk



Register


Go to the top of the page
  Insert nick Quick quote
+Quote Post
post Nov 15 2021, 12:27:04
Post #2

0%Tolerance
**************
Group: Металариец
Posts: 2,059
Releases: 0
On Forums: 9 years 11 months
Thanks: 425 time(s)
Unknown


ЦИТАТА
Стиль: Skate Thrash


ПздцЪ (IMG:style_emoticons/default/1488.gif) . Тогда уж не просто пУнк, а анархо пунк или левый (би.лэ.эм. пунк), одно из двух точно исполняют, хотя то, что в скобках им тогда было ещё не ведомо, но сейчас пипл схавает с радостью с такими тегами такой кал.


Thanks:
(1) WOLAND,
Go to the top of the page
  Insert nick Quick quote
+Quote Post

Reply to this topicStart new topic
1 User(s) are reading this topic (1 Guests and 0 Anonymous Users)
0 Members:

 



- Lo-Fi Version Support form
Copyrights and abuse reports form
Time is now: 17th August 2022 - 08:26:12