Welcome Guest ( Log In | Register )

> Releases Upload / Добавление релизов

Добавить релиз тут / Click here to add release
Рекомендованные обменники / Recommended file shares

 
Reply to this topicStart new topic
> Melabstra - Abstracción Religiosa, Dualidad Imparcial [demo] (2012), Symphonic Black Metal
post Nov 17 2021, 17:29:08
Post #1

Serial Uploader
Group Icon
Group: V.I.P
Posts: 37,924
Releases: 36086
From: Lithuania
On Forums: 13 years 5 months
Thanks: 440384 time(s)
Lithuania


(IMG:https://metalarea.org/images/audiocovers/2021_Nov/acov_tid358324_thumb.jpg)

*Artist: Melabstra
*Album: Abstracción Religiosa, Dualidad Imparcial [demo]
*Year: 2012
*Genre: Symphonic Black Metal
*Country: Colombia (IMG:https://metalarea.org/forum/style_images/flags/Colombia.png)
*Format: mp3@CBR320kbps
*Size: 74MB

Tracklist:
01. Cruzadas 04:02
02. Abstracción religiosa 04:23
03. Redención sobre mi 03:15
04. Adonay Verbum Honoris (Canto templario) 06:05
05. Apocalipsis 04:11
06. Melancolia 05:03
07. Silencio y lagrimas 05:23
******************************
Total playing time: 26:59




(IMG:https://metalarea.org/images/youtube.png)

Extended info
Exclusive for Metalarea.org


Technical info
(IMG:https://metalarea.org/images/spectrogram/2021_Nov/ae028d83acec686e9ae447065b387995.png)
Input File: 02 - Abstracción religiosa.mp3
Channels : 2
Sample Rate : 44100
Precision : 16-bit
Duration : 00:04:24.09 = 11646193 samples = 19806.5 CDDA sectors
File Size : 10.7M
Bit Rate : 324k
Sample Encoding: MPEG audio (layer I, II or III)
Comments :
Title=Abstracción religiosa
Artist=Melabstra
Album=Abstracción religiosa, dualidad imparcial
Tracknumber=2/1



Register


Go to the top of the page
  Insert nick Quick quote
+Quote Post

Reply to this topicStart new topic
1 User(s) are reading this topic (1 Guests and 0 Anonymous Users)
0 Members:

 



- Lo-Fi Version Support form
Copyrights and abuse reports form
Time is now: 6th December 2021 - 00:58:53