Welcome Guest ( Log In | Register )

> Releases Upload / Добавление релизов

Добавить релиз тут / Click here to add release
Рекомендованные обменники / Recommended file shares

> Confusion Master - Haunted (2021), Stoner/Doom Metal
post Nov 19 2021, 07:39:26
Post #1

Правь статус, ####!111
**************
Group: Металариец
Posts: 28,505
Releases: 20866
From: Г.Харьков
On Forums: 9 years 8 months
Thanks: 426499 time(s)
Unknown


(IMG:https://metalarea.org/images/audiocovers/2021_Nov/acov_tid358569_thumb.jpg)

*Artist: Confusion Master
*Album: Haunted
*Year: 2021
*Genre: Stoner/Doom Metal
*Country: Germany (IMG:https://metalarea.org/forum/style_images/flags/Germany.png)
*Format: mp3@CBR320kbps
*Size: 129MB

Tracklist:
1. Viking X 10:36
2. The Cannibal County Maniac 09:07
3. Casket Down 09:24
4. Jaw on a Hook 11:27
5. Haunted 07:19
6. Under the Sign of the Reptile Master 08:14
******************************
Total playing time: 56:07




Extended info
Mathias Klein Bass
Stephan Gottwald Drums
See also: Wojczech
Gunnar Arndt Guitars
Stephan Kurth Guitars, Vocals
See also: Bad Luck Rides on Wheels, Wojczech, ex-Entrails Massacre, ex-J.O.A.T.


Technical info
(IMG:https://metalarea.org/images/spectrogram/2021_Nov/65dd55eedb34c4f7dbc9bb33a17f288b.png)
Input File: 05 - Haunted.mp3
Channels : 2
Sample Rate : 44100
Precision : 16-bit
Duration : 00:07:19.38 = 19376658 samples = 32953.5 CDDA sectors
File Size : 17.7M
Bit Rate : 322k
Sample Encoding: MPEG audio (layer I, II or III)
Comments :
Title=Haunted
Artist=Confusion Master
Album=Haunted
Tracknumber=5
Year=2021



Register


Go to the top of the page
  Insert nick Quick quote
+Quote Post
 
Start new topic
Replies (1 - 2)
post Nov 19 2021, 14:30:04
Post #2

Правь статус, ####!111
**************
Group: Металариец
Posts: 49,702
Releases: 900
On Forums: 12 years 7 months
Thanks: 45897 time(s)
Russian Federation


Сплошной набор сто раз пережёванных клише.

Третьесорт.
Go to the top of the page
  Insert nick Quick quote
+Quote Post
post Dec 31 2021, 06:07:47
Post #3

NoneSoVile
**********
Group: Металариец
Posts: 1,405
Releases: 8
On Forums: 15 years 8 months
Thanks: 1622 time(s)
Australia


Above average Doom Stoner, the base is like an inverted Magnetar, heavy AF.

Top notch production, excellent meandering, chug along wall of sound songs.

Turn this way up and watch your furniture start moving around, lol

(IMG:style_emoticons/default/alkash.gif)
Go to the top of the page
  Insert nick Quick quote
+Quote Post

Reply to this topicStart new topic
1 User(s) are reading this topic (1 Guests and 0 Anonymous Users)
0 Members:

 



- Lo-Fi Version Support form
Copyrights and abuse reports form
Time is now: 16th January 2022 - 19:29:17