Welcome Guest ( Log In | Register )

> Exocatharsis - A Triumphant Stillbirth [ep] (2021), Death Metal
post Nov 19 2021, 14:24:45
Post #1

Serial Uploader
Group Icon
Group: V.I.P
Posts: 38,607
Releases: 36751
From: Lithuania
On Forums: 14 years 3 weeks
Thanks: 456052 time(s)
Lithuania


(IMG:https://metalarea.org/images/audiocovers/2021_Nov/acov_tid358579_thumb.jpg)

*Artist: Exocatharsis
*Album: A Triumphant Stillbirth [ep]
*Year: 2021
*Genre: Death Metal
*Country: United States (IMG:https://metalarea.org/forum/style_images/flags/United%20States.png)
*Format: mp3@CBR320kbps
*Size: 24MB

Tracklist:
01. Emancipation from Bloodpact 03:13
02. Ossuary Incineration 03:20
03. Gerasomniac 04:47
******************************
Total playing time: 11:20



Technical info
(IMG:https://metalarea.org/images/spectrogram/2021_Nov/d0dfbd3bd1a8de14b801edfad9bd7b5b.png)
Input File: 02. Ossuary Incineration.mp3
Channels : 2
Sample Rate : 44100
Precision : 16-bit
Duration : 00:03:21.00 = 8863968 samples = 15074.8 CDDA sectors
File Size : 8.13M
Bit Rate : 323k
Sample Encoding: MPEG audio (layer I, II or III)
Comments :
Title=Ossuary Incineration
Artist=Exocatharsis
Album=A Triumphant Stillbirth
Tracknumber=2
Year=2021



Register


Go to the top of the page
  Insert nick Quick quote
+Quote Post
 
Start new topic
Replies (1 - 1)
post Nov 25 2021, 21:43:57
Post #2

Правь статус, ####!111
**************
Group: Металариец
Posts: 3,080
Releases: 0
On Forums: 7 years 2 months
Thanks: 4228 time(s)
Russian Federation


Дэтовый Running Wild (IMG:style_emoticons/default/1488.gif)


Thanks:
(1) Occultas,
Go to the top of the page
  Insert nick Quick quote
+Quote Post

Reply to this topicStart new topic
1 User(s) are reading this topic (1 Guests and 0 Anonymous Users)
0 Members:

 



- Lo-Fi Version Support form
Copyrights and abuse reports form
Time is now: 5th July 2022 - 07:03:38