Welcome Guest ( Log In | Register )

> И неформату есть предел.

Рэп/хип-хоп/шансон/поп удаляются. Для них есть свои порталы.

 
Reply to this topicStart new topic
> Sceneries And Forms - Presence [ep] (2020), Neofolk
post Nov 21 2021, 19:30:58
Post #1

Литр
*
Group: Подсевший
Posts: 66
Releases: 0
On Forums: 12 years 10 months
Thanks: 54 time(s)
Russian Federation


(IMG:http://metalarea.org/images/audiocovers/2021_Nov/acov_tid358692_thumb.jpg)

*Artist: Sceneries And Forms
*Album: Presence [ep]
*Year: 2020
*Genre: Neofolk
*Country: Russian Federation (IMG:http://metalarea.org/forum/style_images/flags/Russian%20Federation.png)
*Format: mp3@CBR320kbps
*Size: 33MB

Tracklist:
1. Presence (The Heart Sūtra)
2. Bill Knows
******************************
Total playing time: 14:39




Technical info
(IMG:http://metalarea.org/images/spectrogram/2021_Nov/5a10549a57db8334d9b1d59cd82b6d71.png)
Input File: 01. Presence.mp3
Channels : 2
Sample Rate : 44100
Precision : 16-bit
Duration : 00:11:22.23 = 30086123 samples = 51166.9 CDDA sectors
File Size : 27.3M
Bit Rate : 320k
Sample Encoding: MPEG audio (layer I, II or III)
Comments :
Title=Presence (The Heart Sūtra)
Album=Presence
Tracknumber=1
Year=2020
Genre=Neofolk



Register


Thanks:
(1) gwar,
Go to the top of the page
  Insert nick Quick quote
+Quote Post

Reply to this topicStart new topic
2 User(s) are reading this topic (2 Guests and 0 Anonymous Users)
0 Members:

 



- Lo-Fi Version Support form
Copyrights and abuse reports form
Time is now: 29th November 2021 - 06:38:03