Welcome Guest ( Log In | Register )

> Releases Upload / Добавление релизов

Добавить релиз тут / Click here to add release
Рекомендованные обменники / Recommended file shares

> Apeiron - Metamorphosen (2021), Black Metal (D11)
post Nov 22 2021, 09:17:46
Post #1

Время Мары
**************
Group: Металариец
Posts: 3,273
Releases: 487
From: Харьков
On Forums: 12 years 7 months
Thanks: 10040 time(s)
Ukraine


(IMG:http://metalarea.org/images/audiocovers/2021_Nov/acov_tid358702_thumb.jpg)

*Artist: Apeiron
*Album: Metamorphosen
*Year: 2021
*Genre: Black Metal
*Country: Germany (IMG:http://metalarea.org/forum/style_images/flags/Germany.png)
*Format: mp3@CBR320kbps
*Size: 119MB

Tracklist:
01. Metamorphosen 05:07
02. Mehr Seele 05:05
03. Vom Ich 07:06
04. ErdrГјckt 05:19
05. Vertrocknet 04:46
06. Windgrab 05:23
07. Jenseits von Zeit 05:17
08. Weltgeist 06:25
09. Epilog 06:08
******************************
Total playing time: 50:36

Technical info
(IMG:http://metalarea.org/images/spectrogram/2021_Nov/0dd1beb6ee98e32bfcab425dbb4ef667.png)
Input File: 02 Mehr Seele.mp3
Channels : 2
Sample Rate : 44100
Precision : 16-bit
Duration : 00:05:05.75 = 13483751 samples = 22931.5 CDDA sectors
File Size : 12.4M
Bit Rate : 323k
Sample Encoding: MPEG audio (layer I, II or III)
Comments :
Title=Mehr Seele
Artist=Apeiron
Album=Metamorphosen
Tracknumber=2
Year=2021



Register


Go to the top of the page
  Insert nick Quick quote
+Quote Post
 
Start new topic
Replies (1 - 5)
post Nov 23 2021, 13:19:05
Post #2

Маньяк
**********
Group: Металариец
Posts: 1,129
Releases: 0
On Forums: 10 years 8 months
Thanks: 550 time(s)
Unknown




Go to the top of the page
  Insert nick Quick quote
+Quote Post
post Nov 24 2021, 05:13:55
Post #3

Common dweller of hell
**************
Group: Металариец
Posts: 4,176
Releases: 12
From: Dnipro
On Forums: 13 years 6 months
Thanks: 1637 time(s)
Ukraine


Эти чуваки уже какой раз выпускают довольно таки не плохие альбомы (IMG:style_emoticons/default/20.gif)
Go to the top of the page
  Insert nick Quick quote
+Quote Post
post Nov 24 2021, 11:13:33
Post #4

Маньяк
**********
Group: Металариец
Posts: 1,100
Releases: 4
From: Харьков
On Forums: 13 years 4 months
Thanks: 407 time(s)
Ukraine


Неплохой Melodic Black!
Go to the top of the page
  Insert nick Quick quote
+Quote Post
post Nov 24 2021, 15:30:35
Post #5

I hate you all
**************
Group: Металариец
Posts: 2,825
Releases: 89
From: Ukraine
On Forums: 14 years 8 months
Thanks: 7214 time(s)
Ukraine


Go to the top of the page
  Insert nick Quick quote
+Quote Post
post Dec 7 2021, 12:47:06
Post #6

добрый мизантроп
**************
Group: Металариец
Posts: 2,772
Releases: 1
From: Менск
On Forums: 11 years 2 months
Thanks: 1218 time(s)
Madagascar


MBM driven by brilliant bass guitar theme with heavy sound.
Generally its fine background metal because of average guitars , 8.5/10
Go to the top of the page
  Insert nick Quick quote
+Quote Post

Reply to this topicStart new topic
1 User(s) are reading this topic (1 Guests and 0 Anonymous Users)
0 Members:

 



- Lo-Fi Version Support form
Copyrights and abuse reports form
Time is now: 19th January 2022 - 18:08:54