Welcome Guest ( Log In | Register )

> Releases Upload / Добавление релизов

Добавить релиз тут / Click here to add release
Рекомендованные обменники / Recommended file shares

> Ewiniar - Burning The Night (2021), Melodic Gothic Metal
post Nov 22 2021, 17:25:00
Post #1

Семь Литров
*******
Group: Металариец
Posts: 759
Releases: 151
On Forums: 2 years 7 months
Thanks: 3029 time(s)
Russian Federation


(IMG:https://metalarea.org/images/audiocovers/2021_Nov/acov_tid358712_thumb.jpg)

*Artist: Ewiniar
*Album: Burning The Night
*Year: 2021
*Genre: Melodic Gothic Metal
*Country: Croatia (IMG:https://metalarea.org/forum/style_images/flags/Croatia.png)
*Format: mp3@CBR320kbps
*Size: 107MB

Tracklist:
1. Against the Stream 04:43
2. Under the Stars 04:30
3. Years of Heaven 05:23
4. Mother 05:31
5. Midnight Sun 06:29
6. Suspiria 05:11
7. Until the End of Time 05:02
8. Seekers of the Sense 04:57
9. Burning the Night 05:09
******************************
Total playing time: 46:55


(IMG:https://metalarea.org/images/youtube.png)

Technical info
(IMG:https://metalarea.org/images/spectrogram/2021_Nov/5810d6010c262463a2fcf4c7ed30396e.png)
Input File: 02 - Under the Stars.mp3
Channels : 2
Sample Rate : 44100
Precision : 16-bit
Duration : 00:04:30.00 = 11907000 samples = 20250 CDDA sectors
File Size : 10.8M
Bit Rate : 320k
Sample Encoding: MPEG audio (layer I, II or III)
Comments :
Title=Under the Stars
Artist=Ewiniar
Album=Burning the Night
Tracknumber=2
Year=2021-11-19
Genre=Melodic Gothic Metal



Register


Go to the top of the page
  Insert nick Quick quote
+Quote Post
 
Start new topic
Replies (1 - 1)
post Nov 25 2021, 16:35:41
Post #2

Три Литра
***
Group: Завсегдатай
Posts: 224
Releases: 0
From: Zürich
On Forums: 7 months 2 days
Thanks: 113 time(s)
Switzerland


Попсовенько, и я не любитель легковесного готик-рока с женским вокалом, но довольно приятно местами. По первому прогону 1,2 треки и Mother как-то больше всего обратили на себя внимание, но приятные фишки всплывают на протяжении всего альбома. Было бы хотя бы пару реальных хитов, было бы вообще хорошо, а так немного не дотянули.
Go to the top of the page
  Insert nick Quick quote
+Quote Post

Reply to this topicStart new topic
1 User(s) are reading this topic (1 Guests and 0 Anonymous Users)
0 Members:

 



- Lo-Fi Version Support form
Copyrights and abuse reports form
Time is now: 16th January 2022 - 19:49:17