Welcome Guest ( Log In | Register )

> Releases Upload / Добавление релизов

Добавить релиз тут / Click here to add release
Рекомендованные обменники / Recommended file shares

> Estril - Estrilealos A Todos (2021), Thrash Metal/Crossover
post Nov 23 2021, 06:53:28
Post #1

Правь статус, ####!111
**************
Group: Металариец
Posts: 28,529
Releases: 20890
From: Г.Харьков
On Forums: 9 years 8 months
Thanks: 426938 time(s)
Unknown


(IMG:https://metalarea.org/images/audiocovers/2021_Nov/acov_tid358735_thumb.jpg)

*Artist: Estril
*Album: Estrilealos A Todos
*Year: 2021
*Genre: Thrash Metal/Crossover
*Country: Nicaragua (IMG:https://metalarea.org/forum/style_images/flags/Nicaragua.png)
*Format: mp3@CBR320kbps
*Size: 77MB

Tracklist:
1. Intro
2. Wang Jing
3. Bosque de lata
4. Zombie Thrash
5. Muerte blanca
6. En un país
7. DBCP
8. Rey jaguar
9. Crisis
******************************
Total playing time: 33:44



Extended info


Technical info
(IMG:https://metalarea.org/images/spectrogram/2021_Nov/2b3cac9b00f7d4b8732735982591b86c.png)
Input File: 07 - DBCP.mp3
Channels : 2
Sample Rate : 44100
Precision : 16-bit
Duration : 00:05:13.57 = 13828217 samples = 23517.4 CDDA sectors
File Size : 12.5M
Bit Rate : 320k
Sample Encoding: MPEG audio (layer I, II or III)
Comments :
Title=DBCP
Artist=Estril
Album=Estrilealos a todos
Tracknumber=7
Year=2021



Register


Go to the top of the page
  Insert nick Quick quote
+Quote Post
 
Start new topic
Replies (1 - 1)
post Nov 24 2021, 18:00:58
Post #2

Три Литра
***
Group: Завсегдатай
Posts: 215
Releases: 0
From: Madrid
On Forums: 13 years 1 day
Thanks: 70 time(s)
Mexico


Go to the top of the page
  Insert nick Quick quote
+Quote Post

Reply to this topicStart new topic
1 User(s) are reading this topic (1 Guests and 0 Anonymous Users)
0 Members:

 



- Lo-Fi Version Support form
Copyrights and abuse reports form
Time is now: 19th January 2022 - 17:16:42