Welcome Guest ( Log In | Register )

> Releases Upload / Добавление релизов

Добавить релиз тут / Click here to add release
Рекомендованные обменники / Recommended file shares

> Ghost Cries - Purgatorium (2021), Symphonic Gothic/Death Metal
post Nov 23 2021, 12:24:16
Post #1

Правь статус, ####!111
**************
Group: Металариец
Posts: 28,136
Releases: 20530
From: Г.Харьков
On Forums: 9 years 6 months
Thanks: 417913 time(s)
Unknown


(IMG:https://metalarea.org/images/audiocovers/2021_Nov/acov_tid358742_thumb.jpg)

*Artist: Ghost Cries
*Album: Purgatorium
*Year: 2021
*Genre: Symphonic Gothic/Death Metal
*Country: Japan (IMG:https://metalarea.org/forum/style_images/flags/Japan.png)
*Format: mp3@CBR320kbps
*Size: 101MB

Tracklist:
1. Sin of Justice
2. Shadowbringer
3. Revelation
4. Holy Grail Saga
5. Awakening Thanatos
6. Demigoddess
7. Requiem
8. Phantom of the Kingdom
******************************
Total playing time: 44:02



Extended info
Manabu Drums
Mitchey Guitars
Hayato Guitars
See also: Fantom, Mechanical Teddy
You Guitars
Any Vocals (2018-present)
See also: ex-Athena's Slaughter (live)


Technical info
(IMG:https://metalarea.org/images/spectrogram/2021_Nov/eb7becc249eb907c9b983ec212961934.png)
Input File: 08 - Phantom of The Kingdom.mp3
Channels : 2
Sample Rate : 44100
Precision : 16-bit
Duration : 00:07:09.61 = 18945669 samples = 32220.5 CDDA sectors
File Size : 17.3M
Bit Rate : 322k
Sample Encoding: MPEG audio (layer I, II or III)
Comments :
Title=Phantom of The Kingdom
Artist=Ghost Cries
Album=Purgatorium
Tracknumber=8/8
Year=2021



Register


Go to the top of the page
  Insert nick Quick quote
+Quote Post
 
Start new topic
Replies (1 - 6)
post Nov 27 2021, 20:48:26
Post #2

Три Литра
***
Group: Завсегдатай
Posts: 246
Releases: 1
On Forums: 14 years 7 months
Thanks: 25 time(s)
Russian Federation


не надо было япам проникать на темную сторону, нет.. за реедким исключением это нечто специфическое.
Go to the top of the page
  Insert nick Quick quote
+Quote Post
post Yesterday, 10:38:55
Post #3

Group: Подсевший
Posts: 12
Releases: 0
On Forums: 7 months 3 weeks
Thanks: 0 time(s)
Ukraine


ЦИТАТА(silentstorm @ Nov 27 2021, 21:48:26) *
не надо было япам проникать на темную сторону, нет.. за реедким исключением это нечто специфическое.


Действительно ужасно
Go to the top of the page
  Insert nick Quick quote
+Quote Post
post Yesterday, 15:42:32
Post #4

Group: Подсевший
Posts: 44
Releases: 0
On Forums: 2 years 5 months
Thanks: 1 time(s)
Russian Federation



Ghost Cries - Purgatorium а есть этот альбом в lossles? ради интереса
Go to the top of the page
  Insert nick Quick quote
+Quote Post
post Yesterday, 17:05:58
Post #5

Шесть Литров
******
Group: Металариец
Posts: 605
Releases: 6
On Forums: 3 years 6 months
Thanks: 481 time(s)
Russian Federation


По-моему, какая-то ахинея сделанная бездарно, безвкусно и нелепо. Напихали всего и всякого, а о том, чтобы это слушалось - не подумали.
Go to the top of the page
  Insert nick Quick quote
+Quote Post
post Yesterday, 17:08:46
Post #6

Правь статус, ####!111
**************
Group: Металариец
Posts: 49,551
Releases: 892
On Forums: 12 years 5 months
Thanks: 45565 time(s)
Russian Federation


ЦИТАТА(silentstorm @ Nov 27 2021, 22:48:26) *
не надо было япам проникать на темную сторону, нет.. за реедким исключением это нечто специфическое.


У японцев очень сильная стоунер дум и неоклассик пауэр сцена.
Go to the top of the page
  Insert nick Quick quote
+Quote Post
post Yesterday, 17:28:47
Post #7

Шесть Литров
******
Group: Металариец
Posts: 605
Releases: 6
On Forums: 3 years 6 months
Thanks: 481 time(s)
Russian Federation


ЦИТАТА(vosmidesijatye @ 28th November 2021 - 17:08:46) *
У японцев очень сильная стоунер дум

Нет.
ЦИТАТА(vosmidesijatye @ 28th November 2021 - 17:08:46) *
неоклассик пауэр сцена

Да, была.
Go to the top of the page
  Insert nick Quick quote
+Quote Post

Reply to this topicStart new topic
1 User(s) are reading this topic (1 Guests and 0 Anonymous Users)
0 Members:

 



- Lo-Fi Version Support form
Copyrights and abuse reports form
Time is now: 29th November 2021 - 07:24:36