Welcome Guest ( Log In | Register )

> Releases Upload / Добавление релизов

Добавить релиз тут / Click here to add release
Рекомендованные обменники / Recommended file shares

 
Reply to this topicStart new topic
> Morbid Gorgeous Girl - Unknown (2021), Porno Goregrind
post Nov 23 2021, 14:43:56
Post #1

Serial Uploader
Group Icon
Group: V.I.P
Posts: 37,884
Releases: 36046
From: Lithuania
On Forums: 13 years 5 months
Thanks: 439698 time(s)
Lithuania


(IMG:https://metalarea.org/images/audiocovers/2021_Nov/acov_tid358743_thumb.jpg)

*Artist: Morbid Gorgeous Girl
*Album: Unknown
*Year: 2021
*Genre: Porno Goregrind
*Country: Costa Rica (IMG:https://metalarea.org/forum/style_images/flags/Costa%20Rica.png)
*Format: mp3@CBR320kbps
*Size: 107MB

Tracklist:
01. Into The Abyss Of Insanity (Intro) 02:10
02. Holocaust Massacre (I Want A Cunt) 02:58
03. More Shit From A Shitty World 02:23
04. Falacia Cristiana Mors Ad Tugurium Martyris Pervenissent 05:36
05. Beauty Annihilator (Death To Kawaii) 05:28
06. Tomb Of The Putrid Piles Of Corpses 02:58
07. Otaku Vampire Is Tsutomu Miyazaki 02:24
08. Hostages Torture Shred Meat (Feat. Lordhentai From Gokkun) 02:48
09. Pathologist Anoxic Chamber (Feat. Discharge Of The Bloody Entrails And Septic Karnage) 03:43
10. Squeeze My Dick Onee-San 03:15
11. Infernal Bukkake Gang-Bang 03:20
12. Unknown 03:17
13. Ouroboros (Final Chapter) 05:45
******************************
Total playing time: 46:05



(IMG:https://metalarea.org/images/youtube.png)

Technical info
(IMG:https://metalarea.org/images/spectrogram/2021_Nov/ce363b7de9ceccb4566f881d6328d776.png)
Input File: 03. More Shit from a Shitty World.mp3
Channels : 2
Sample Rate : 44100
Precision : 16-bit
Duration : 00:02:23.11 = 6310975 samples = 10733 CDDA sectors
File Size : 5.88M
Bit Rate : 329k
Sample Encoding: MPEG audio (layer I, II or III)
Comments :
Title=More Shit from a Shitty World
Artist=Morbid Gorgeous Girl
Album=UnKnOwN
Tracknumber=3
Year=2021



Register


Go to the top of the page
  Insert nick Quick quote
+Quote Post

Reply to this topicStart new topic
1 User(s) are reading this topic (1 Guests and 0 Anonymous Users)
0 Members:

 



- Lo-Fi Version Support form
Copyrights and abuse reports form
Time is now: 29th November 2021 - 07:38:14